<?xml version="1.0" standalone="no"?>
<!DOCTYPE svg PUBLIC "-//W3C//DTD SVG 1.1//EN" "http://www.w3.org/Graphics/SVG/1.1/DTD/svg11.dtd" >
<svg xmlns="http://www.w3.org/2000/svg">
<metadata>Generated by IcoMoon</metadata>
<defs>
<font id="qxicon" horiz-adv-x="1024">
<font-face units-per-em="1024" ascent="960" descent="-64" />
<missing-glyph horiz-adv-x="1024" />
<glyph unicode="&#x20;" horiz-adv-x="512" d="" />
<glyph unicode="&#xe900;" glyph-name="adjust" d="M512 880c239.89 0 432-194.674 432-432 0-239.89-194.674-432-432-432-239.89 0-432 194.674-432 432 0 239.89 194.674 432 432 432zM512 944c-273.934 0-496-222.066-496-496s222.066-496 496-496 496 222.066 496 496-222.066 496-496 496zM448 695.98v-495.96c-107.71 27.6-192 126.002-192 247.98 0 121.98 84.29 220.38 192 247.98zM512 768c-176.732 0-320-143.268-320-320s143.268-320 320-320v640z" />
<glyph unicode="&#xe901;" glyph-name="alarm-clock" horiz-adv-x="896" d="M596.6 262.6l-9-13.2c-7.6-11-22.4-13.6-33.4-6.2l-127.6 87.8c-6.6 4.4-10.4 11.8-10.4 19.8v265.2c0 13.2 10.8 24 24 24h16c13.2 0 24-10.8 24-24v-244l110.4-76c10.6-7.6 13.4-22.4 6-33.4zM755.2 58l67.4-67.4c12.4-12.4 12.4-32.8 0-45.2-12.4-12.6-32.8-12.4-45.2 0l-72 72c-72.8-51.4-161.6-81.4-257.4-81.4s-184.6 30-257.4 81.4l-72-72c-12.4-12.6-32.8-12.4-45.2 0s-12.4 32.8 0 45.2l67.4 67.4c-86.8 81.6-140.8 197.6-140.8 326 0 75.4 18.6 146.6 51.6 209-32.2 38.8-51.6 88.6-51.6 143 0 123.8 100.2 224 224 224 89.6 0 166.8-52.6 202.6-128.4 14.2 0.6 29 0.6 42.6 0 35.6 75.2 112.6 128.4 202.8 128.4 123.8 0 224-100.2 224-224 0-54.4-19.4-104.2-51.6-143 33-62.4 51.6-133.6 51.6-209 0-128.4-54-244.4-140.8-326zM537.8 823c110-22.4 205.2-85 269.8-171.8 15.4 24.6 24.4 53.6 24.4 84.8 0 88.2-71.8 160-160 160-56.2 0-105.6-29.2-134.2-73zM64 736c0-31.2 9-60.2 24.4-84.8 64.6 86.8 160 149.4 269.8 171.8-28.6 43.8-78 73-134.2 73-88.2 0-160-71.8-160-160zM448 768c-212 0-384-172-384-384s172-384 384-384 384 172 384 384-172 384-384 384z" />
<glyph unicode="&#xe902;" glyph-name="align-center" horiz-adv-x="896" d="M704 856v-48c0-6.627-5.373-12-12-12v0h-488c-6.627 0-12 5.373-12 12v0 48c0 6.627 5.373 12 12 12v0h488c6.627 0 12-5.373 12-12v0zM12 540h872c6.627 0 12 5.373 12 12v0 48c0 6.627-5.373 12-12 12v0h-872c-6.627 0-12-5.373-12-12v0-48c0-6.627 5.373-12 12-12v0zM12 28h872c6.627 0 12 5.373 12 12v0 48c0 6.627-5.373 12-12 12v0h-872c-6.627 0-12-5.373-12-12v0-48c0-6.627 5.373-12 12-12v0zM692 356h-488c-6.627 0-12-5.373-12-12v0-48c0-6.627 5.373-12 12-12v0h488c6.627 0 12 5.373 12 12v0 48c0 6.627-5.373 12-12 12v0z" />
<glyph unicode="&#xe903;" glyph-name="align-justify" horiz-adv-x="896" d="M0 808v48c0 6.627 5.373 12 12 12v0h872c6.627 0 12-5.373 12-12v0-48c0-6.627-5.373-12-12-12v0h-872c-6.627 0-12 5.373-12 12v0zM12 540h872c6.627 0 12 5.373 12 12v0 48c0 6.627-5.373 12-12 12v0h-872c-6.627 0-12-5.373-12-12v0-48c0-6.627 5.373-12 12-12v0zM12 28h872c6.627 0 12 5.373 12 12v0 48c0 6.627-5.373 12-12 12v0h-872c-6.627 0-12-5.373-12-12v0-48c0-6.627 5.373-12 12-12v0zM12 284h872c6.627 0 12 5.373 12 12v0 48c0 6.627-5.373 12-12 12v0h-872c-6.627 0-12-5.373-12-12v0-48c0-6.627 5.373-12 12-12v0z" />
<glyph unicode="&#xe904;" glyph-name="align-left" horiz-adv-x="896" d="M576 856v-48c0-6.627-5.373-12-12-12v0h-552c-6.627 0-12 5.373-12 12v0 48c0 6.627 5.373 12 12 12v0h552c6.627 0 12-5.373 12-12v0zM12 540h872c6.627 0 12 5.373 12 12v0 48c0 6.627-5.373 12-12 12v0h-872c-6.627 0-12-5.373-12-12v0-48c0-6.627 5.373-12 12-12v0zM12 28h872c6.627 0 12 5.373 12 12v0 48c0 6.627-5.373 12-12 12v0h-872c-6.627 0-12-5.373-12-12v0-48c0-6.627 5.373-12 12-12v0zM564 356h-552c-6.627 0-12-5.373-12-12v0-48c0-6.627 5.373-12 12-12v0h552c6.627 0 12 5.373 12 12v0 48c0 6.627-5.373 12-12 12v0z" />
<glyph unicode="&#xe905;" glyph-name="align-right" horiz-adv-x="896" d="M320 808v48c0 6.627 5.373 12 12 12v0h552c6.627 0 12-5.373 12-12v0-48c0-6.627-5.373-12-12-12v0h-552c-6.627 0-12 5.373-12 12v0zM12 540h872c6.627 0 12 5.373 12 12v0 48c0 6.627-5.373 12-12 12v0h-872c-6.627 0-12-5.373-12-12v0-48c0-6.627 5.373-12 12-12v0zM12 28h872c6.627 0 12 5.373 12 12v0 48c0 6.627-5.373 12-12 12v0h-872c-6.627 0-12-5.373-12-12v0-48c0-6.627 5.373-12 12-12v0zM332 284h552c6.627 0 12 5.373 12 12v0 48c0 6.627-5.373 12-12 12v0h-552c-6.627 0-12-5.373-12-12v0-48c0-6.627 5.373-12 12-12v0z" />
<glyph unicode="&#xe906;" glyph-name="allergies" horiz-adv-x="896" d="M480 128c-17.6 0-32-14.4-32-32s14.4-32 32-32 32 14.4 32 32-14.4 32-32 32zM672 128c-17.6 0-32-14.4-32-32s14.4-32 32-32 32 14.4 32 32-14.4 32-32 32zM352 192c-17.6 0-32-14.4-32-32s14.4-32 32-32 32 14.4 32 32-14.4 32-32 32zM736 384c-17.6 0-32-14.4-32-32s14.4-32 32-32 32 14.4 32 32-14.4 32-32 32zM608 256c-17.6 0-32-14.4-32-32s14.4-32 32-32 32 14.4 32 32-14.4 32-32 32zM480 320c-17.6 0-32-14.4-32-32s14.4-32 32-32 32 14.4 32 32-14.4 32-32 32zM352 384c-17.6 0-32-14.4-32-32s14.4-32 32-32 32 14.4 32 32-14.4 32-32 32zM784 736c-17.2 0-33.4-3.8-48-10.8v58.8c0 61.8-50.2 112-112 112-19.4 0-37.6-5-53.4-13.6-14.6 45-56.8 77.6-106.6 77.6s-92-32.6-106.6-77.6c-15.8 8.6-34 13.6-53.4 13.6-61.8 0-112-50.2-112-112v-305.6c-23 23.6-84.2 55.4-144.2 13.4-50.6-35.4-63-105.4-27.6-156l227.4-342.6c23.8-35.8 63.6-57.2 106.6-57.2h361.2c60.8 0 113.6 43.2 125.6 102.8l41.2 206.4c9 45.4 13.6 91.8 13.6 138v240.8c0.2 61.8-50 112-111.8 112zM832 383.4c0-42.2-4.2-84.2-12.4-125.6l-41.2-206.4c-6-30-32.2-51.4-62.8-51.4h-361.2c-21.4 0-41.4 10.8-53.4 28.6l-228.4 343.8c-15.2 21.8-10 51.6 11.8 66.8 31.6 22.2 60-2 66.8-11.8l75.6-108.8c9-12.8 29.2-6.6 29.2 9.2v456.2c0 26.6 21.4 48 48 48s48-21.4 48-48v-320c0-8.8 7.2-16 16-16h32c8.8 0 16 7.2 16 16v384c0 26.6 21.4 48 48 48s48-21.4 48-48v-384c0-8.8 7.2-16 16-16h32c8.8 0 16 7.2 16 16v320c0 26.6 21.4 48 48 48s48-21.4 48-48v-320c0-8.8 7.2-16 16-16h32c8.8 0 16 7.2 16 16v160c0 26.6 21.4 48 48 48s48-21.4 48-48v-240.6z" />
<glyph unicode="&#xe907;" glyph-name="american-sign-language-interpreting" horiz-adv-x="1280" d="M1271.822 533.494c-0.090 0.186-82.514 166.264-82.514 166.264-19.12 38.528-67.276 56.942-108.792 36.030l-110.572-55.93-157.904 14.764c-10.11 0.946-65.028 1.366-118.69-31.61-15.068 28.796-37.078 40.984-65.746 52.216 33.992 65.022-13.708 154.044-103.688 141.664 3.080 54.67-40.218 103.108-97.138 103.108-23.694-0.023-45.401-8.517-62.257-22.617l0.153 0.125c-90.032-74.486-148.152-179.7-163.404-295.35l-65.108-118.332s-96.102-55.126-96.278-55.23c-36.502-21.558-50.134-67.758-31.708-106.124 0.090-0.188 82.514-166.268 82.514-166.268 19.136-38.544 67.298-56.932 108.796-36.028l110.596 55.942c162.186-14.984 162.396-14.986 165.432-14.986 39.814 0 78.178 11.476 111.102 31.886 9.47-18.134 24.392-32.866 43.098-42.29 5.278-2.654 14.076-6.622 22.684-9.994-33.774-64.606 13.76-154.028 103.688-141.664-3.138-55.69 41.362-103.070 97.2-103.070 22.698 0 44.744 7.99 62.104 22.504 90.022 74.504 148.098 179.71 163.34 295.298l65.11 118.332s96.1 55.126 96.276 55.23c36.504 21.56 50.136 67.762 31.706 106.13zM832.332 59.846c25.054 21.312 46.262 44.7 63.030 69.51 10.028 14.836-8.010 31.938-22.292 22.162-39.792-27.24-83.582-43.936-130.146-49.622-43.29-5.364-52.46 61.604-8.466 66.624 30.764 3.74 60.38 14.050 88.032 30.644 15.486 9.292 5.94 33.236-11.676 29.344-48.628-10.716-105.624-3.44-152.304 19.376-41.51 20.914-9.036 79.648 28.786 61.008 40.834-20.57 89.074-23.494 132.348-8.028 16.818 6.010 12.512 31.066-5.384 31.066-66.762 0-117.852 30.222-143.872 85.122-18.87 39.662 41.092 69.25 59.982 28.814l0.102-0.21c14.012-28.876 42.376-46.816 74.022-46.816 45.102 0 81.794 36.912 81.794 82.282 0 50.824-42.458 82.284-81.794 82.284-31.646 0-60.010-17.94-74.022-46.816l-0.102-0.21c-18.866-40.384-78.878-10.904-59.972 28.836 24.956 52.652 77.182 85.408 136.442 85.616l170.932-15.982c0.451-0.045 0.975-0.071 1.505-0.071 2.63 0 5.11 0.637 7.296 1.765l-0.089-0.042 122.828 62.128c2.239 1.184 4.894 1.879 7.712 1.879 6.501 0 12.137-3.7 14.918-9.109l0.044-0.094 82.194-165.598c4.010-8.446 1.15-18.6-6.53-23.192l-107.328-61.562c-2.557-1.485-4.614-3.577-6.014-6.085l-0.042-0.081-76.078-138.264c-0.966-1.719-1.634-3.735-1.877-5.879l-0.007-0.073c-11.452-103.332-61.816-196.682-141.91-262.924-32.92-27.634-77.366 22.702-42.062 52.198zM476.122 265.132c-9.366 0.794-127.94 11.738-173.906 15.984-0.444 0.044-0.959 0.069-1.48 0.069-2.632 0-5.116-0.637-7.305-1.765l0.090 0.042-122.826-62.128c-2.24-1.184-4.895-1.88-7.713-1.88-6.5 0-12.137 3.699-14.919 9.108l-0.044 0.094-82.192 165.6c-4.010 8.45-1.148 18.606 6.534 23.196l107.326 61.558c2.557 1.485 4.614 3.577 6.014 6.085l0.042 0.081 76.074 138.264c1.014 1.84 1.654 3.864 1.884 5.952 11.454 103.334 61.818 196.684 141.88 262.898 33.222 27.748 77.456-22.624 42.086-52.174-25.060-21.316-46.266-44.704-63.030-69.51-9.836-14.552 7.764-32.104 22.292-22.162 39.794 27.24 83.582 43.936 130.318 49.644 17.198 2.272 34.148-8.65 37.026-29.202 2.43-18.542-10.154-35.326-28.732-37.446-30.762-3.74-60.378-14.050-88.030-30.644-15.426-9.256-6.044-33.224 11.676-29.344 48.626 10.716 105.628 3.442 152.302-19.376 41.222-20.766 9.334-79.71-28.852-60.972-40.824 20.542-89.030 23.452-132.28 7.992-16.818-6.012-12.512-31.066 5.384-31.066 66.762 0 117.852-30.222 143.87-85.122 18.484-38.848-39.52-69.728-60.082-28.604-14.012 28.876-42.376 46.816-74.022 46.816-45.102 0-81.794-36.912-81.794-82.282 0-50.824 42.458-82.284 81.794-82.284 31.646 0 60.010 17.94 74.022 46.816 0.036 0.070 0.068 0.142 0.102 0.212 18.896 40.448 78.834 10.82 59.97-28.838-24.558-51.822-76.9-85.374-133.478-85.612zM495.934 414.838c-3.908-6.676-7.1-18.282-20.422-18.282-5.574 0-17.794 4.604-17.794 18.282 0 10.252 7.816 18.282 17.794 18.282 13.196 0.002 16.316-11.268 20.422-18.282zM784.064 481.122c3.894 6.652 7.088 18.282 20.422 18.282 5.574 0 17.796-4.604 17.796-18.282 0-10.252-7.816-18.282-17.796-18.282-13.196 0-16.314 11.268-20.422 18.282z" />
<glyph unicode="&#xe908;" glyph-name="anchor" horiz-adv-x="1152" d="M1008.97 431.030c-9.372 9.372-24.568 9.372-33.942 0l-134.058-134.058c-15.12-15.12-4.412-40.97 16.97-40.97h98.258c-33.976-137.5-175.196-243.202-348.198-254.906v574.904h104c13.254 0 24 10.746 24 24v16c0 13.254-10.746 24-24 24h-104v68.032c57.026 14.678 98.672 67.666 95.866 129.894-2.96 65.622-56.202 118.916-121.822 121.934-73.44 3.378-134.044-55.164-134.044-127.86 0-59.642 40.792-109.758 96-123.968v-68.032h-104c-13.254 0-24-10.746-24-24v-16c0-13.254 10.746-24 24-24h104v-574.904c-173.004 11.704-314.224 117.406-348.198 254.904h98.258c21.382 0 32.090 25.852 16.97 40.97l-134.058 134.060c-9.372 9.372-24.568 9.372-33.942 0l-134.058-134.060c-15.12-15.118-4.412-40.97 16.97-40.97h104.272c37.712-192.784 235.512-320 445.786-320 221.802 0 409.876 136.426 445.786 320h104.272c21.382 0 32.090 25.852 16.97 40.97l-134.058 134.060zM512 832c0 35.29 28.71 64 64 64s64-28.71 64-64-28.71-64-64-64-64 28.71-64 64zM122.51 320l37.49 37.49 37.49-37.49h-74.98zM954.51 320l37.49 37.49 37.49-37.49h-74.98z" />
<glyph unicode="&#xe909;" glyph-name="angle-double-down" horiz-adv-x="512" d="M239 434.2l-232 235.6c-9.4 9.4-9.4 24.6 0 34l14.2 14.2c9.4 9.4 24.6 9.4 34 0l200.8-204.6 200.8 204.4c9.4 9.4 24.6 9.4 34 0l14.2-14.2c9.4-9.4 9.4-24.6 0-34l-232-235.6c-9.4-9.2-24.6-9.2-34 0.2zM273 178.2l232 235.6c9.4 9.4 9.4 24.6 0 34l-14.2 14.2c-9.4 9.4-24.6 9.4-34 0l-200.8-204.6-200.8 204.4c-9.4 9.4-24.6 9.4-34 0l-14.2-14.2c-9.4-9.4-9.4-24.6 0-34l232-235.6c9.4-9.2 24.6-9.2 34 0.2z" />
<glyph unicode="&#xe90a;" glyph-name="angle-double-left" horiz-adv-x="640" d="M306.2 465l235.6 232c9.4 9.4 24.6 9.4 34 0l14.2-14.2c9.4-9.4 9.4-24.6 0-34l-204.6-200.8 204.4-200.8c9.4-9.4 9.4-24.6 0-34l-14.2-14.2c-9.4-9.4-24.6-9.4-34 0l-235.6 232c-9.2 9.4-9.2 24.6 0.2 34zM50.2 431l235.6-232c9.4-9.4 24.6-9.4 34 0l14.2 14.2c9.4 9.4 9.4 24.6 0 34l-204.6 200.8 204.4 200.8c9.4 9.4 9.4 24.6 0 34l-14.2 14.2c-9.4 9.4-24.6 9.4-34 0l-235.6-232c-9.2-9.4-9.2-24.6 0.2-34z" />
<glyph unicode="&#xe90b;" glyph-name="angle-double-right" horiz-adv-x="640" d="M333.8 431l-235.6-232c-9.4-9.4-24.6-9.4-34 0l-14.2 14.2c-9.4 9.4-9.4 24.6 0 34l204.6 200.8-204.4 200.8c-9.4 9.4-9.4 24.6 0 34l14.2 14.2c9.4 9.4 24.6 9.4 34 0l235.6-232c9.2-9.4 9.2-24.6-0.2-34zM589.8 465l-235.6 232c-9.4 9.4-24.6 9.4-34 0l-14.2-14.2c-9.4-9.4-9.4-24.6 0-34l204.6-200.8-204.4-200.8c-9.4-9.4-9.4-24.6 0-34l14.2-14.2c9.4-9.4 24.6-9.4 34 0l235.6 232c9.2 9.4 9.2 24.6-0.2 34z" />
<glyph unicode="&#xe90c;" glyph-name="angle-double-up" horiz-adv-x="512" d="M273 461.8l232-235.6c9.4-9.4 9.4-24.6 0-34l-14.2-14.2c-9.4-9.4-24.6-9.4-34 0l-200.8 204.6-200.8-204.4c-9.4-9.4-24.6-9.4-34 0l-14.2 14.2c-9.4 9.4-9.4 24.6 0 34l232 235.6c9.4 9.2 24.6 9.2 34-0.2zM239 717.8l-232-235.6c-9.4-9.4-9.4-24.6 0-34l14.2-14.2c9.4-9.4 24.6-9.4 34 0l200.8 204.6 200.8-204.4c9.4-9.4 24.6-9.4 34 0l14.2 14.2c9.4 9.4 9.4 24.6 0 34l-232 235.6c-9.4 9.2-24.6 9.2-34-0.2z" />
<glyph unicode="&#xe90d;" glyph-name="angle-down" horiz-adv-x="512" d="M239 306.2l-232 235.6c-9.4 9.4-9.4 24.6 0 34l14.2 14.2c9.4 9.4 24.6 9.4 34 0l200.8-204.6 200.8 204.4c9.4 9.4 24.6 9.4 34 0l14.2-14.2c9.4-9.4 9.4-24.6 0-34l-232-235.6c-9.4-9.2-24.6-9.2-34 0.2z" />
<glyph unicode="&#xe90e;" glyph-name="angle-left" horiz-adv-x="384" d="M50.2 465l235.6 232c9.4 9.4 24.6 9.4 34 0l14.2-14.2c9.4-9.4 9.4-24.6 0-34l-204.6-200.8 204.4-200.8c9.4-9.4 9.4-24.6 0-34l-14.2-14.2c-9.4-9.4-24.6-9.4-34 0l-235.6 232c-9.2 9.4-9.2 24.6 0.2 34z" />
<glyph unicode="&#xe90f;" glyph-name="angle-right" horiz-adv-x="384" d="M333.8 431l-235.6-232c-9.4-9.4-24.6-9.4-34 0l-14.2 14.2c-9.4 9.4-9.4 24.6 0 34l204.6 200.8-204.4 200.8c-9.4 9.4-9.4 24.6 0 34l14.2 14.2c9.4 9.4 24.6 9.4 34 0l235.6-232c9.2-9.4 9.2-24.6-0.2-34z" />
<glyph unicode="&#xe910;" glyph-name="angle-up" horiz-adv-x="512" d="M273 589.8l232-235.6c9.4-9.4 9.4-24.6 0-34l-14.2-14.2c-9.4-9.4-24.6-9.4-34 0l-200.8 204.6-200.8-204.4c-9.4-9.4-24.6-9.4-34 0l-14.2 14.2c-9.4 9.4-9.4 24.6 0 34l232 235.6c9.4 9.2 24.6 9.2 34-0.2z" />
<glyph unicode="&#xe911;" glyph-name="archive" d="M928 896h-832c-53 0-96-43-96-96v-128c0-17.6 14.4-32 32-32h32v-544c0-53 43-96 96-96h704c53 0 96 43 96 96v544h32c17.6 0 32 14.4 32 32v128c0 53-43 96-96 96zM896 96c0-17.6-14.4-32-32-32h-704c-17.6 0-32 14.4-32 32v544h768v-544zM960 704h-896v96c0 17.6 14.4 32 32 32h832c17.6 0 32-14.4 32-32v-96zM408 448h208c13.2 0 24 10.8 24 24v16c0 13.2-10.8 24-24 24h-208c-13.2 0-24-10.8-24-24v-16c0-13.2 10.8-24 24-24z" />
<glyph unicode="&#xe912;" glyph-name="arrow-alt-circle-down" d="M512 944c-274 0-496-222-496-496s222-496 496-496 496 222 496 496-222 496-496 496zM944 448c0-237.4-192.2-432-432-432-237.4 0-432 192.2-432 432 0 237.4 192.2 432 432 432 237.4 0 432-192.2 432-432zM768 512h-128v208c0 26.4-21.6 48-48 48h-160c-26.4 0-48-21.6-48-48v-208h-128c-56.8 0-85.6-69-45.2-109.2l256-256c25-25 65.6-25 90.6 0l256 256c40 40.2 11.6 109.2-45.4 109.2zM512 192l-256 256h192v256h128v-256h192l-256-256z" />
<glyph unicode="&#xe913;" glyph-name="arrow-alt-circle-left" d="M1008 448c0 274-222 496-496 496s-496-222-496-496 222-496 496-496 496 222 496 496zM512 16c-237.4 0-432 192.2-432 432 0 237.4 192.2 432 432 432 237.4 0 432-192.2 432-432 0-237.4-192.2-432-432-432zM576 192v128h208c26.4 0 48 21.6 48 48v160c0 26.4-21.6 48-48 48h-208v128c0 56.8-69 85.6-109.2 45.2l-256-256c-25-25-25-65.6 0-90.6l256-256c40.2-40 109.2-11.6 109.2 45.4zM256 448l256 256v-192h256v-128h-256v-192l-256 256z" />
<glyph unicode="&#xe914;" glyph-name="arrow-alt-circle-right" d="M16 448c0-274 222-496 496-496s496 222 496 496-222 496-496 496-496-222-496-496zM512 880c237.4 0 432-192.2 432-432 0-237.4-192.2-432-432-432-237.4 0-432 192.2-432 432 0 237.4 192.2 432 432 432zM448 704v-128h-208c-26.4 0-48-21.6-48-48v-160c0-26.4 21.6-48 48-48h208v-128c0-56.8 69-85.6 109.2-45.2l256 256c25 25 25 65.6 0 90.6l-256 256c-40.2 40-109.2 11.6-109.2-45.4zM768 448l-256-256v192h-256v128h256v192l256-256z" />
<glyph unicode="&#xe915;" glyph-name="arrow-alt-circle-up" d="M512-48c274 0 496 222 496 496s-222 496-496 496-496-222-496-496 222-496 496-496zM80 448c0 237.4 192.2 432 432 432 237.4 0 432-192.2 432-432 0-237.4-192.2-432-432-432-237.4 0-432 192.2-432 432zM256 384h128v-208c0-26.4 21.6-48 48-48h160c26.4 0 48 21.6 48 48v208h128c56.8 0 85.6 69 45.2 109.2l-256 256c-25 25-65.6 25-90.6 0l-256-256c-40-40.2-11.6-109.2 45.4-109.2zM512 704l256-256h-192v-256h-128v256h-192l256 256z" />
<glyph unicode="&#xe916;" glyph-name="arrow-alt-down" horiz-adv-x="896" d="M534.854 832c22.724 0 41.146-18.422 41.146-41.144v-342.874h233.958c14.25 0 21.39-17.224 11.32-27.306l-344.166-344.606c-16.072-16.092-42.152-16.094-58.224 0l-344.168 344.606c-10.070 10.082-2.928 27.306 11.32 27.306h233.96v342.874c0 22.722 18.422 41.144 41.146 41.144h173.708zM534.854 896h-173.71c-57.976 0-105.144-47.168-105.144-105.144v-278.874h-169.958c-71.014 0-106.994-86.080-56.604-136.532l344.166-344.606c41.1-41.152 107.684-41.16 148.792 0l344.166 344.606c50.182 50.244 14.702 136.532-56.604 136.532h-169.958v278.874c0 57.976-47.168 105.144-105.146 105.144z" />
<glyph unicode="&#xe917;" glyph-name="arrow-alt-from-bottom" horiz-adv-x="768" d="M744 0h-720c-13.2 0-24 10.8-24 24v16c0 13.2 10.8 24 24 24h720c13.2 0 24-10.8 24-24v-16c0-13.2-10.8-24-24-24zM306.2 192h155.4c17.6 0 32 14.4 32 32v288h187.8c14.2 0 21.4 17.2 11.4 27.2l-286.2 287.2c-12.6 12.6-32.8 12.6-45.4 0l-286-287.2c-10-10-3-27.2 11.4-27.2h187.8v-288c-0.2-17.6 14.2-32 31.8-32zM306.2 128c-53 0-96 43-96 96v224h-123.6c-71.2 0-106.8 86.2-56.6 136.4l286 287.2c37.6 37.6 98.4 37.6 136 0l286.2-287c50.4-50.4 14.4-136.4-56.6-136.4h-123.8v-224c0-53-43-96-96-96h-155.6v-0.2z" />
<glyph unicode="&#xe918;" glyph-name="arrow-alt-from-left" horiz-adv-x="896" d="M0 88v720c0 13.2 10.8 24 24 24h16c13.2 0 24-10.8 24-24v-720c0-13.2-10.8-24-24-24h-16c-13.2 0-24 10.8-24 24zM192 525.8v-155.4c0-17.6 14.4-32 32-32h288v-187.8c0-14.2 17.2-21.4 27.2-11.4l283.2 286.2c12.6 12.6 12.6 32.8 0 45.4l-283.2 286c-10 10-27.2 3-27.2-11.4v-187.8h-288c-17.6 0.2-32-14.2-32-31.8zM128 525.8c0 53 43 96 96 96h224v123.8c0 71.2 86.2 106.8 136.4 56.6l283.4-286.2c37.6-37.6 37.6-98.4 0-136l-283.4-286.2c-50.4-50.4-136.4-14.4-136.4 56.6v123.8h-224c-53 0-96 43-96 96v155.6z" />
<glyph unicode="&#xe919;" glyph-name="arrow-alt-from-right" horiz-adv-x="896" d="M896 808v-720c0-13.2-10.8-24-24-24h-16c-13.2 0-24 10.8-24 24v720c0 13.2 10.8 24 24 24h16c13.2 0 24-10.8 24-24zM704 370.2v155.4c0 17.6-14.4 32-32 32h-288v187.8c0 14.2-17.2 21.4-27.2 11.4l-283.4-286.2c-12.6-12.6-12.6-32.8 0-45.4l283.2-286.2c10-10 27.2-3 27.2 11.4v187.8h288c17.8 0 32.2 14.4 32.2 32zM768 370.2c0-53-43-96-96-96h-224v-123.8c0-71.2-86.2-106.8-136.4-56.6l-283.4 286.2c-37.6 37.6-37.6 98.4 0 136l283.4 286.2c50.4 50.2 136.4 14.2 136.4-56.8v-123.8h224c53 0 96-43 96-96v-155.4z" />
<glyph unicode="&#xe91a;" glyph-name="arrow-alt-from-top" horiz-adv-x="768" d="M24 896h720c13.2 0 24-10.8 24-24v-16c0-13.2-10.8-24-24-24h-720c-13.2 0-24 10.8-24 24v16c0 13.2 10.8 24 24 24zM461.8 704h-155.4c-17.6 0-32-14.4-32-32v-288h-187.8c-14.2 0-21.4-17.2-11.4-27.2l286.2-287c12.6-12.6 32.8-12.6 45.4 0l286.2 287c10 10 3 27.2-11.4 27.2h-187.8v288c0 17.6-14.4 32-32 32zM461.8 768c53 0 96-43 96-96v-224h123.8c71.2 0 106.8-86.2 56.6-136.4l-286.2-287.2c-37.6-37.6-98.4-37.6-136 0l-286.2 287.2c-50.2 50.4-14.2 136.4 56.8 136.4h123.8v224c0 53 43 96 96 96h155.4z" />
<glyph unicode="&#xe91b;" glyph-name="arrow-alt-left" horiz-adv-x="896" d="M832.024 361.146c0-22.724-18.422-41.146-41.144-41.146h-342.876v-233.958c0-14.25-17.224-21.39-27.306-11.32l-344.604 344.166c-16.092 16.072-16.094 42.152 0 58.224l344.604 344.168c10.082 10.070 27.306 2.928 27.306-11.32v-233.96h342.874c22.724 0 41.144-18.422 41.144-41.146v-173.708zM896.024 361.146v173.71c0 57.978-47.168 105.146-105.144 105.146h-278.876v169.956c0 71.014-86.080 106.994-136.532 56.604l-344.606-344.166c-41.152-41.1-41.16-107.684 0-148.792l344.606-344.166c50.244-50.182 136.532-14.702 136.532 56.604v169.958h278.874c57.978 0 105.146 47.168 105.146 105.146z" />
<glyph unicode="&#xe91c;" glyph-name="arrow-alt-right" horiz-adv-x="896" d="M64 534.854c0 22.724 18.422 41.146 41.144 41.146h342.874v233.958c0 14.25 17.224 21.39 27.306 11.32l344.606-344.166c16.092-16.072 16.094-42.152 0-58.224l-344.606-344.168c-10.082-10.070-27.306-2.928-27.306 11.32v233.96h-342.874c-22.722 0-41.144 18.422-41.144 41.146v173.708zM0 534.854v-173.71c0-57.976 47.168-105.144 105.144-105.144h278.874v-169.958c0-71.014 86.080-106.994 136.532-56.604l344.606 344.166c41.152 41.1 41.16 107.684 0 148.792l-344.604 344.166c-50.244 50.182-136.532 14.702-136.532-56.604v-169.958h-278.876c-57.976 0-105.144-47.168-105.144-105.146z" />
<glyph unicode="&#xe91d;" glyph-name="arrow-alt-square-down" horiz-adv-x="896" d="M800 896h-704c-53 0-96-43-96-96v-704c0-53 43-96 96-96h704c53 0 96 43 96 96v704c0 53-43 96-96 96zM832 96c0-17.6-14.4-32-32-32h-704c-17.6 0-32 14.4-32 32v704c0 17.6 14.4 32 32 32h704c17.6 0 32-14.4 32-32v-704zM704 512h-128v208c0 26.4-21.6 48-48 48h-160c-26.4 0-48-21.6-48-48v-208h-128c-56.8 0-85.6-69-45.2-109.2l256-256c25-25 65.6-25 90.6 0l256 256c40 40.2 11.6 109.2-45.4 109.2zM448 192l-256 256h192v256h128v-256h192l-256-256z" />
<glyph unicode="&#xe91e;" glyph-name="arrow-alt-square-left" horiz-adv-x="896" d="M896 96v704c0 53-43 96-96 96h-704c-53 0-96-43-96-96v-704c0-53 43-96 96-96h704c53 0 96 43 96 96zM96 64c-17.6 0-32 14.4-32 32v704c0 17.6 14.4 32 32 32h704c17.6 0 32-14.4 32-32v-704c0-17.6-14.4-32-32-32h-704zM512 192v128h208c26.4 0 48 21.6 48 48v160c0 26.4-21.6 48-48 48h-208v128c0 56.8-69 85.6-109.2 45.2l-256-256c-25-25-25-65.6 0-90.6l256-256c40.2-40 109.2-11.6 109.2 45.4zM192 448l256 256v-192h256v-128h-256v-192l-256 256z" />
<glyph unicode="&#xe91f;" glyph-name="arrow-alt-square-right" horiz-adv-x="896" d="M0 800v-704c0-53 43-96 96-96h704c53 0 96 43 96 96v704c0 53-43 96-96 96h-704c-53 0-96-43-96-96zM800 832c17.6 0 32-14.4 32-32v-704c0-17.6-14.4-32-32-32h-704c-17.6 0-32 14.4-32 32v704c0 17.6 14.4 32 32 32h704zM384 704v-128h-208c-26.4 0-48-21.6-48-48v-160c0-26.4 21.6-48 48-48h208v-128c0-56.8 69-85.6 109.2-45.2l256 256c25 25 25 65.6 0 90.6l-256 256c-40.2 40-109.2 11.6-109.2-45.4zM704 448l-256-256v192h-256v128h256v192l256-256z" />
<glyph unicode="&#xe920;" glyph-name="arrow-alt-square-up" horiz-adv-x="896" d="M96 0h704c53 0 96 43 96 96v704c0 53-43 96-96 96h-704c-53 0-96-43-96-96v-704c0-53 43-96 96-96zM64 800c0 17.6 14.4 32 32 32h704c17.6 0 32-14.4 32-32v-704c0-17.6-14.4-32-32-32h-704c-17.6 0-32 14.4-32 32v704zM192 384h128v-208c0-26.4 21.6-48 48-48h160c26.4 0 48 21.6 48 48v208h128c56.8 0 85.6 69 45.2 109.2l-256 256c-25 25-65.6 25-90.6 0l-256-256c-40-40.2-11.6-109.2 45.4-109.2zM448 704l256-256h-192v-256h-128v256h-192l256 256z" />
<glyph unicode="&#xe921;" glyph-name="arrow-alt-to-bottom" horiz-adv-x="768" d="M461.8 832c17.6 0 32-14.4 32-32v-288h187.8c14.2 0 21.4-17.2 11.4-27.2l-286.4-287.2c-12.6-12.6-32.8-12.6-45.4 0l-286 287.2c-10 10-3 27.2 11.4 27.2h187.8v288c0 17.6 14.4 32 32 32h155.4zM461.8 896h-155.4c-53 0-96-43-96-96v-224h-123.8c-71 0-107-86-56.6-136.4l286-287.2c37.6-37.6 98.4-37.6 136 0l286.2 287c50.2 50.2 14.6 136.4-56.6 136.4h-123.8v224.2c0 53-43.2 96-96 96zM768 24v16c0 13.2-10.8 24-24 24h-720c-13.2 0-24-10.8-24-24v-16c0-13.2 10.8-24 24-24h720c13.2 0 24 10.8 24 24z" />
<glyph unicode="&#xe922;" glyph-name="arrow-alt-to-left" horiz-adv-x="896" d="M832 370.2c0-17.6-14.4-32-32-32h-288v-187.8c0-14.2-17.2-21.4-27.2-11.4l-287.2 286.4c-12.6 12.6-12.6 32.8 0 45.4l287 286.2c10 10 27.2 3 27.2-11.4v-187.8h288c17.6 0 32-14.4 32-32v-155.6zM896 370.2v155.4c0 53-43 96-96 96h-224v123.8c0 71-86 107-136.4 56.6l-287.2-286c-37.6-37.6-37.6-98.4 0-136l287-286.2c50.2-50.2 136.4-14.6 136.4 56.6v123.8h224c53.2 0 96.2 43.2 96.2 96zM24 64h16c13.2 0 24 10.8 24 24v720c0 13.2-10.8 24-24 24h-16c-13.2 0-24-10.8-24-24v-720c0-13.2 10.8-24 24-24z" />
<glyph unicode="&#xe923;" glyph-name="arrow-alt-to-right" horiz-adv-x="896" d="M64 525.8c0 17.6 14.4 32 32 32h288v187.8c0 14.2 17.2 21.4 27.2 11.4l287-286.2c12.6-12.6 12.6-32.8 0-45.4l-287-286.2c-10-10-27.2-3-27.2 11.4v187.8h-288c-17.6 0-32 14.4-32 32v155.4zM0 525.8v-155.4c0-53 43-96 96-96h224v-123.8c0-71 86-107 136.4-56.6l287.2 286c37.6 37.6 37.6 98.4 0 136l-287.2 286.2c-50.2 50.2-136.4 14.6-136.4-56.6v-123.8h-224c-53 0-96-43.2-96-96zM872 832h-16c-13.2 0-24-10.8-24-24v-720c0-13.2 10.8-24 24-24h16c13.2 0 24 10.8 24 24v720c0 13.2-10.8 24-24 24z" />
<glyph unicode="&#xe924;" glyph-name="arrow-alt-to-top" horiz-adv-x="768" d="M306.2 64c-17.6 0-32 14.4-32 32v288h-187.6c-14.2 0-21.4 17.2-11.4 27.2l286.2 287c12.6 12.6 32.8 12.6 45.4 0l286.2-287c10-10 3-27.2-11.4-27.2h-187.8v-288c0-17.6-14.4-32-32-32h-155.6zM306.2 0h155.4c53 0 96 43 96 96v224h123.8c71 0 107 86 56.6 136.4l-286 287.2c-37.6 37.6-98.4 37.6-136 0l-286.2-287.2c-50-50.2-14.6-136.4 56.8-136.4h123.8v-224c-0.2-53 43-96 95.8-96zM0 872v-16c0-13.2 10.8-24 24-24h720c13.2 0 24 10.8 24 24v16c0 13.2-10.8 24-24 24h-720c-13.2 0-24-10.8-24-24z" />
<glyph unicode="&#xe925;" glyph-name="arrow-alt-up" horiz-adv-x="896" d="M361.146 64c-22.724 0-41.146 18.422-41.146 41.144v342.874h-233.958c-14.25 0-21.39 17.224-11.32 27.306l344.166 344.606c16.072 16.092 42.152 16.094 58.224 0l344.168-344.606c10.070-10.082 2.928-27.306-11.32-27.306h-233.96v-342.874c0-22.724-18.422-41.144-41.146-41.144h-173.708zM361.146 0h173.71c57.976 0 105.144 47.168 105.144 105.144v278.874h169.958c71.014 0 106.994 86.080 56.604 136.532l-344.166 344.606c-41.1 41.152-107.684 41.16-148.792 0l-344.166-344.604c-50.182-50.244-14.702-136.532 56.604-136.532h169.958v-278.874c0-57.978 47.168-105.146 105.146-105.146z" />
<glyph unicode="&#xe926;" glyph-name="arrow-circle-down" d="M512 944c-274 0-496-222-496-496s222-496 496-496 496 222 496 496-222 496-496 496zM944 448c0-237.4-192.2-432-432-432-237.4 0-432 192.2-432 432 0 237.4 192.2 432 432 432 237.4 0 432-192.2 432-432zM759 457l-13.8 13.8c-9.4 9.4-25 9.4-34.2-0.4l-165-171v380.6c0 13.2-10.8 24-24 24h-20c-13.2 0-24-10.8-24-24v-380.6l-165 171.2c-9.4 9.6-24.8 9.8-34.2 0.4l-13.8-13.8c-9.4-9.4-9.4-24.6 0-34l230-230.2c9.4-9.4 24.6-9.4 34 0l230 230.2c9.4 9.2 9.4 24.4 0 33.8z" />
<glyph unicode="&#xe927;" glyph-name="arrow-circle-left" d="M1008 448c0 274-222 496-496 496s-496-222-496-496 222-496 496-496 496 222 496 496zM512 16c-237.4 0-432 192.2-432 432 0 237.4 192.2 432 432 432 237.4 0 432-192.2 432-432 0-237.4-192.2-432-432-432zM487 201l-230.2 230c-9.4 9.4-9.4 24.6 0 34l230.2 230c9.4 9.4 24.6 9.4 34 0l13.8-13.8c9.4-9.4 9.4-25-0.4-34.2l-171-165h380.6c13.2 0 24-10.8 24-24v-20c0-13.2-10.8-24-24-24h-380.6l171.2-165c9.6-9.4 9.8-24.8 0.4-34.2l-13.8-13.8c-9.6-9.4-24.8-9.4-34.2 0z" />
<glyph unicode="&#xe928;" glyph-name="arrow-circle-right" d="M16 448c0-274 222-496 496-496s496 222 496 496-222 496-496 496-496-222-496-496zM512 880c237.4 0 432-192.2 432-432 0-237.4-192.2-432-432-432-237.4 0-432 192.2-432 432 0 237.4 192.2 432 432 432zM537 695l230.2-230c9.4-9.4 9.4-24.6 0-34l-230.2-230c-9.4-9.4-24.6-9.4-34 0l-13.8 13.8c-9.4 9.4-9.4 25 0.4 34.2l171.2 165h-380.8c-13.2 0-24 10.8-24 24v20c0 13.2 10.8 24 24 24h380.6l-171.2 165c-9.6 9.4-9.8 24.8-0.4 34.2l13.8 13.8c9.6 9.4 24.8 9.4 34.2 0z" />
<glyph unicode="&#xe929;" glyph-name="arrow-circle-up" d="M512-48c274 0 496 222 496 496s-222 496-496 496-496-222-496-496 222-496 496-496zM80 448c0 237.4 192.2 432 432 432 237.4 0 432-192.2 432-432 0-237.4-192.2-432-432-432-237.4 0-432 192.2-432 432zM265 473l230 230.2c9.4 9.4 24.6 9.4 34 0l230-230.2c9.4-9.4 9.4-24.6 0-34l-13.8-13.8c-9.4-9.4-25-9.4-34.2 0.4l-165 171v-380.6c0-13.2-10.8-24-24-24h-20c-13.2 0-24 10.8-24 24v380.6l-165-171.2c-9.4-9.6-24.8-9.8-34.2-0.4l-13.8 13.8c-9.4 9.6-9.4 24.8 0 34.2z" />
<glyph unicode="&#xe92a;" glyph-name="arrow-down" horiz-adv-x="896" d="M887 463l-14.2 14.2c-9.4 9.4-24.6 9.4-34 0l-356.8-357v751.8c0 13.2-10.8 24-24 24h-20c-13.2 0-24-10.8-24-24v-751.8l-357 357c-9.4 9.4-24.6 9.4-34 0l-14.2-14.2c-9.4-9.4-9.4-24.6 0-34l422-422.2c9.4-9.4 24.6-9.4 34 0l422 422.2c9.6 9.6 9.6 24.6 0.2 34z" />
<glyph unicode="&#xe92b;" glyph-name="arrow-from-bottom" horiz-adv-x="768" d="M71 592l296 297c9.4 9.4 24.6 9.4 34 0l296-297c9.4-9.4 9.4-24.6 0-34l-14.2-14.2c-9.4-9.4-24.6-9.4-34 0l-230.8 232v-623.8c0-13.2-10.8-24-24-24h-20c-13.2 0-24 10.8-24 24v623.8l-230.8-231.8c-9.4-9.4-24.6-9.4-34 0l-14.2 14.2c-9.4 9.2-9.4 24.4 0 33.8zM768 24v16c0 13.2-10.8 24-24 24h-720c-13.2 0-24-10.8-24-24v-16c0-13.2 10.8-24 24-24h720c13.2 0 24 10.8 24 24z" />
<glyph unicode="&#xe92c;" glyph-name="arrow-from-left" horiz-adv-x="896" d="M592 761l297-296c9.4-9.4 9.4-24.6 0-34l-297-296c-9.4-9.4-24.6-9.4-34 0l-14.2 14.2c-9.4 9.4-9.4 24.6 0 34l232 230.8h-623.8c-13.2 0-24 10.8-24 24v20c0 13.2 10.8 24 24 24h623.8l-231.8 230.8c-9.4 9.4-9.4 24.6 0 34l14.2 14.2c9.2 9.4 24.4 9.4 33.8 0zM24 64h16c13.2 0 24 10.8 24 24v720c0 13.2-10.8 24-24 24h-16c-13.2 0-24-10.8-24-24v-720c0-13.2 10.8-24 24-24z" />
<glyph unicode="&#xe92d;" glyph-name="arrow-from-right" horiz-adv-x="896" d="M304 135l-297 296c-9.4 9.4-9.4 24.6 0 34l297 296c9.4 9.4 24.6 9.4 34 0l14.2-14.2c9.4-9.4 9.4-24.6 0-34l-232-230.8h623.8c13.2 0 24-10.8 24-24v-20c0-13.2-10.8-24-24-24h-623.8l231.8-230.8c9.4-9.4 9.4-24.6 0-34l-14.2-14.2c-9.2-9.4-24.4-9.4-33.8 0zM872 832h-16c-13.2 0-24-10.8-24-24v-720c0-13.2 10.8-24 24-24h16c13.2 0 24 10.8 24 24v720c0 13.2-10.8 24-24 24z" />
<glyph unicode="&#xe92e;" glyph-name="arrow-from-top" horiz-adv-x="768" d="M697 304l-296-297c-9.4-9.4-24.6-9.4-34 0l-296 297c-9.4 9.4-9.4 24.6 0 34l14.2 14.2c9.4 9.4 24.6 9.4 34 0l230.8-232v623.8c0 13.2 10.8 24 24 24h20c13.2 0 24-10.8 24-24v-623.8l230.8 231.8c9.4 9.4 24.6 9.4 34 0l14.2-14.2c9.4-9.2 9.4-24.4 0-33.8zM0 872v-16c0-13.2 10.8-24 24-24h720c13.2 0 24 10.8 24 24v16c0 13.2-10.8 24-24 24h-720c-13.2 0-24-10.8-24-24z" />
<glyph unicode="&#xe92f;" glyph-name="arrow-left" horiz-adv-x="896" d="M463.072 8.93l14.142 14.14c9.372 9.372 9.372 24.568 0 33.942l-356.988 356.988h751.774c13.254 0 24 10.746 24 24v20c0 13.254-10.746 24-24 24h-751.774l356.988 356.988c9.372 9.372 9.372 24.568 0 33.942l-14.142 14.14c-9.372 9.372-24.568 9.372-33.94 0l-422.102-422.1c-9.372-9.372-9.372-24.568 0-33.942l422.102-422.1c9.372-9.372 24.568-9.372 33.94 0.002z" />
<glyph unicode="&#xe930;" glyph-name="arrow-right" horiz-adv-x="896" d="M432.928 887.070l-14.142-14.14c-9.372-9.372-9.372-24.568 0-33.942l356.988-356.988h-751.774c-13.254 0-24-10.746-24-24v-20c0-13.254 10.746-24 24-24h751.774l-356.988-356.988c-9.372-9.372-9.372-24.568 0-33.942l14.142-14.14c9.372-9.372 24.568-9.372 33.94 0l422.102 422.1c9.372 9.372 9.372 24.568 0 33.942l-422.102 422.098c-9.372 9.374-24.568 9.374-33.94 0z" />
<glyph unicode="&#xe931;" glyph-name="arrow-square-down" horiz-adv-x="896" d="M695 423l-230-230.2c-9.4-9.4-24.6-9.4-34 0l-230 230.2c-9.4 9.4-9.4 24.6 0 34l13.8 13.8c9.4 9.4 25 9.4 34.2-0.4l165-171.2v380.8c0 13.2 10.8 24 24 24h20c13.2 0 24-10.8 24-24v-380.6l165 171.2c9.4 9.6 24.8 9.8 34.2 0.4l13.8-13.8c9.4-9.6 9.4-24.8 0-34.2zM896 800v-704c0-53-43-96-96-96h-704c-53 0-96 43-96 96v704c0 53 43 96 96 96h704c53 0 96-43 96-96zM832 800c0 17.6-14.4 32-32 32h-704c-17.6 0-32-14.4-32-32v-704c0-17.6 14.4-32 32-32h704c17.6 0 32 14.4 32 32v704z" />
<glyph unicode="&#xe932;" glyph-name="arrow-square-left" horiz-adv-x="896" d="M423 201l-230.2 230c-9.4 9.4-9.4 24.6 0 34l230.2 230c9.4 9.4 24.6 9.4 34 0l13.8-13.8c9.4-9.4 9.4-25-0.4-34.2l-171-165h380.6c13.2 0 24-10.8 24-24v-20c0-13.2-10.8-24-24-24h-380.6l171.2-165c9.6-9.4 9.8-24.8 0.4-34.2l-13.8-13.8c-9.6-9.4-24.8-9.4-34.2 0zM800 0h-704c-53 0-96 43-96 96v704c0 53 43 96 96 96h704c53 0 96-43 96-96v-704c0-53-43-96-96-96zM800 64c17.6 0 32 14.4 32 32v704c0 17.6-14.4 32-32 32h-704c-17.6 0-32-14.4-32-32v-704c0-17.6 14.4-32 32-32h704z" />
<glyph unicode="&#xe933;" glyph-name="arrow-square-right" horiz-adv-x="896" d="M473 695l230.2-230c9.4-9.4 9.4-24.6 0-34l-230.2-230c-9.4-9.4-24.6-9.4-34 0l-13.8 13.8c-9.4 9.4-9.4 25 0.4 34.2l171.2 165h-380.8c-13.2 0-24 10.8-24 24v20c0 13.2 10.8 24 24 24h380.6l-171.2 165c-9.6 9.4-9.8 24.8-0.4 34.2l13.8 13.8c9.6 9.4 24.8 9.4 34.2 0zM96 896h704c53 0 96-43 96-96v-704c0-53-43-96-96-96h-704c-53 0-96 43-96 96v704c0 53 43 96 96 96zM96 832c-17.6 0-32-14.4-32-32v-704c0-17.6 14.4-32 32-32h704c17.6 0 32 14.4 32 32v704c0 17.6-14.4 32-32 32h-704z" />
<glyph unicode="&#xe934;" glyph-name="arrow-square-up" horiz-adv-x="896" d="M201 473l230 230.2c9.4 9.4 24.6 9.4 34 0l230-230.2c9.4-9.4 9.4-24.6 0-34l-13.8-13.8c-9.4-9.4-25-9.4-34.2 0.4l-165 171v-380.6c0-13.2-10.8-24-24-24h-20c-13.2 0-24 10.8-24 24v380.6l-165-171.2c-9.4-9.6-24.8-9.8-34.2-0.4l-13.8 13.8c-9.4 9.6-9.4 24.8 0 34.2zM0 96v704c0 53 43 96 96 96h704c53 0 96-43 96-96v-704c0-53-43-96-96-96h-704c-53 0-96 43-96 96zM64 96c0-17.6 14.4-32 32-32h704c17.6 0 32 14.4 32 32v704c0 17.6-14.4 32-32 32h-704c-17.6 0-32-14.4-32-32v-704z" />
<glyph unicode="&#xe935;" glyph-name="arrow-to-bottom" horiz-adv-x="768" d="M697 432l-296-297c-9.4-9.4-24.6-9.4-34 0l-296 297c-9.4 9.4-9.4 24.6 0 34l14.2 14.2c9.4 9.4 24.6 9.4 34 0l230.8-232v623.8c0 13.2 10.8 24 24 24h20c13.2 0 24-10.8 24-24v-623.8l230.8 231.8c9.4 9.4 24.6 9.4 34 0l14.2-14.2c9.4-9.2 9.4-24.4 0-33.8zM768 24v16c0 13.2-10.8 24-24 24h-720c-13.2 0-24-10.8-24-24v-16c0-13.2 10.8-24 24-24h720c13.2 0 24 10.8 24 24z" />
<glyph unicode="&#xe936;" glyph-name="arrow-to-left" horiz-adv-x="896" d="M432 135l-297 296c-9.4 9.4-9.4 24.6 0 34l297 296c9.4 9.4 24.6 9.4 34 0l14.2-14.2c9.4-9.4 9.4-24.6 0-34l-232-230.8h623.8c13.2 0 24-10.8 24-24v-20c0-13.2-10.8-24-24-24h-623.8l231.8-230.8c9.4-9.4 9.4-24.6 0-34l-14.2-14.2c-9.2-9.4-24.4-9.4-33.8 0zM24 64h16c13.2 0 24 10.8 24 24v720c0 13.2-10.8 24-24 24h-16c-13.2 0-24-10.8-24-24v-720c0-13.2 10.8-24 24-24z" />
<glyph unicode="&#xe937;" glyph-name="arrow-to-right" horiz-adv-x="896" d="M430 761l-14.2-14.2c-9.4-9.4-9.4-24.6 0-34l232-230.8h-623.8c-13.2 0-24-10.8-24-24v-20c0-13.2 10.8-24 24-24h623.8l-231.8-230.8c-9.4-9.4-9.4-24.6 0-34l14.2-14.2c9.4-9.4 24.6-9.4 34 0l297 296c9.4 9.4 9.4 24.6 0 34l-297.2 296c-9.4 9.4-24.6 9.4-34 0zM896 808v-720c0-13.2-10.8-24-24-24h-16c-13.2 0-24 10.8-24 24v720c0 13.2 10.8 24 24 24h16c13.2 0 24-10.8 24-24z" />
<glyph unicode="&#xe938;" glyph-name="arrow-to-top" horiz-adv-x="768" d="M71 464l296 297c9.4 9.4 24.6 9.4 34 0l296-297c9.4-9.4 9.4-24.6 0-34l-14.2-14.2c-9.4-9.4-24.6-9.4-34 0l-230.8 232v-623.8c0-13.2-10.8-24-24-24h-20c-13.2 0-24 10.8-24 24v623.8l-230.8-231.8c-9.4-9.4-24.6-9.4-34 0l-14.2 14.2c-9.4 9.2-9.4 24.4 0 33.8zM0 872v-16c0-13.2 10.8-24 24-24h720c13.2 0 24 10.8 24 24v16c0 13.2-10.8 24-24 24h-720c-13.2 0-24-10.8-24-24z" />
<glyph unicode="&#xe939;" glyph-name="arrow-up" horiz-adv-x="896" d="M8.93 432.928l14.14-14.142c9.372-9.372 24.568-9.372 33.942 0l356.988 356.988v-751.774c0-13.254 10.746-24 24-24h20c13.254 0 24 10.746 24 24v751.774l356.988-356.986c9.372-9.372 24.568-9.372 33.942 0l14.14 14.142c9.372 9.372 9.372 24.568 0 33.94l-422.1 422.1c-9.372 9.372-24.568 9.372-33.942 0l-422.098-422.102c-9.374-9.372-9.374-24.568 0-33.94z" />
<glyph unicode="&#xe93a;" glyph-name="arrows-alt-h" d="M768 575.936v-93.936h-512v93.924c0 56.85-68.976 85.534-109.254 45.254l-128-127.924c-24.992-24.992-24.996-65.514 0-90.51l128-127.936c40.198-40.198 109.254-11.708 109.254 45.256v93.936h512v-93.924c0-56.85 68.974-85.534 109.254-45.254l128 127.924c24.992 24.992 24.996 65.514 0 90.51l-128 127.936c-40.198 40.198-109.254 11.708-109.254-45.256zM200 320.064c0-7.096-8.592-10.722-13.666-5.646l-127.99 127.926c-1.45 1.447-2.347 3.447-2.347 5.657 0 2.204 0.892 4.2 2.336 5.645v0l128.012 127.936c5.066 5.064 13.658 1.448 13.658-5.656v-255.862zM837.666 581.584l127.99-127.926c1.45-1.447 2.347-3.447 2.347-5.657 0-2.204-0.892-4.2-2.336-5.645v0l-128.012-127.936c-5.064-5.064-13.658-1.45-13.658 5.656v255.86c0.002 7.096 8.594 10.722 13.668 5.648z" />
<glyph unicode="&#xe93b;" glyph-name="arrows-alt-v" horiz-adv-x="384" d="M319.936 192h-93.936v512h93.924c56.85 0 85.534 68.976 45.254 109.254l-127.924 128c-24.992 24.992-65.514 24.996-90.51 0l-127.936-128c-40.198-40.198-11.708-109.254 45.256-109.254h93.936v-512h-93.924c-56.85 0-85.534-68.974-45.254-109.254l127.924-128c24.992-24.992 65.514-24.996 90.51 0l127.936 128c40.198 40.198 11.708 109.254-45.256 109.254zM64.064 760c-7.096 0-10.722 8.592-5.646 13.666l127.926 127.99c1.447 1.45 3.447 2.347 5.657 2.347 2.204 0 4.2-0.892 5.645-2.336v0l127.936-128.012c5.064-5.066 1.448-13.658-5.656-13.658h-255.862zM325.584 122.334l-127.926-127.99c-1.447-1.45-3.447-2.347-5.657-2.347-2.204 0-4.2 0.892-5.645 2.336v0l-127.936 128.010c-5.064 5.064-1.45 13.658 5.656 13.658h255.86c7.096 0 10.722-8.592 5.648-13.666z" />
<glyph unicode="&#xe93c;" glyph-name="arrows-alt" d="M644.938 200.88l-100.938 0.004v215.116h215.112l-0.006-100.934c0-58.574 71.068-88.128 112.568-46.628l133.012 132.934c25.75 25.75 25.754 67.502 0 93.254l-132.998 132.932c-41.418 41.418-112.568 12.064-112.568-46.628l-0.004-100.93h-215.116v215.112l100.926-0.006c58.574 0 88.128 71.068 46.628 112.568l-132.934 133.012c-25.75 25.75-67.502 25.754-93.254 0l-132.932-132.998c-41.418-41.418-12.064-112.568 46.628-112.568l100.938-0.004v-215.116h-215.112l0.006 100.934c0 58.574-71.066 88.128-112.568 46.628l-133.012-132.934c-25.75-25.75-25.754-67.502 0-93.256l132.998-132.932c41.418-41.418 112.568-12.064 112.568 46.628l0.004 100.932h215.116v-215.112l-100.926 0.006c-58.574 0-88.128-71.068-46.628-112.568l132.934-133.012c25.75-25.75 67.502-25.754 93.254 0l132.932 132.998c41.418 41.418 12.064 112.568-46.628 112.568zM830.9 586.75l132.986-132.92c1.494-1.491 2.418-3.552 2.418-5.829 0-2.271-0.919-4.327-2.406-5.817v0l-133.024-132.946c-5.22-5.218-14.072-1.492-14.072 5.828l0.014 265.864c0.004 7.312 8.856 11.048 14.084 5.82zM379.062 752.82c-7.31 0-11.046 8.852-5.818 14.082l132.92 132.986c1.491 1.494 3.552 2.418 5.829 2.418 2.271 0 4.327-0.919 5.817-2.406v0l132.946-133.024c5.218-5.22 1.492-14.072-5.828-14.072l-265.866 0.016zM193.1 309.25l-132.986 132.92c-1.494 1.491-2.418 3.552-2.418 5.829 0 2.271 0.919 4.327 2.406 5.817v0l133.024 132.946c5.22 5.218 14.072 1.492 14.072-5.828l-0.014-265.864c-0.004-7.312-8.856-11.048-14.084-5.82zM506.19-3.9l-132.946 133.024c-5.218 5.22-1.492 14.072 5.828 14.072l265.864-0.014c7.31 0 11.046-8.852 5.818-14.082l-132.92-132.986c-1.49-1.495-3.552-2.42-5.829-2.42-2.27 0-4.326 0.919-5.815 2.406v0z" />
<glyph unicode="&#xe93d;" glyph-name="arrows-h" d="M799.918 618.83c-9.372-9.372-9.372-24.568 0-33.942l103.856-102.888h-783.548l103.856 102.888c9.372 9.372 9.372 24.568 0 33.942l-14.142 14.14c-9.372 9.372-24.568 9.372-33.94 0l-168.97-168c-9.372-9.372-9.372-24.568 0-33.942l168.97-168c9.372-9.372 24.568-9.372 33.94 0l14.142 14.14c9.372 9.372 9.372 24.568 0 33.942l-103.856 102.89h783.546l-103.856-102.888c-9.372-9.372-9.372-24.568 0-33.942l14.142-14.14c9.372-9.372 24.568-9.372 33.94 0l168.97 168c9.374 9.372 9.374 24.568 0 33.942l-168.97 168c-9.372 9.372-24.568 9.372-33.94 0l-14.14-14.142z" />
<glyph unicode="&#xe93e;" glyph-name="arrows-v" horiz-adv-x="384" d="M362.83 160.082c-9.372 9.372-24.568 9.372-33.942 0l-102.888-103.856v783.548l102.888-103.856c9.372-9.372 24.568-9.372 33.942 0l14.14 14.142c9.372 9.372 9.372 24.568 0 33.94l-168 168.97c-9.372 9.372-24.568 9.372-33.942 0l-167.998-168.97c-9.372-9.372-9.372-24.568 0-33.94l14.14-14.142c9.372-9.372 24.568-9.372 33.942 0l102.888 103.856v-783.546l-102.888 103.856c-9.372 9.372-24.568 9.372-33.942 0l-14.14-14.142c-9.372-9.372-9.372-24.568 0-33.94l168-168.97c9.372-9.374 24.568-9.374 33.942 0l168 168.97c9.372 9.372 9.372 24.568 0 33.94l-14.142 14.14z" />
<glyph unicode="&#xe93f;" glyph-name="arrows" d="M675.564 90.592l-146.594-147.564c-9.372-9.372-24.568-9.372-33.942 0l-146.592 147.564c-9.372 9.372-9.372 24.568 0 33.94l14.14 14.14c9.372 9.372 24.568 9.372 33.942 0l81.482-82.446h2v359.774h-359.774v-2l82.448-81.482c9.372-9.372 9.372-24.568 0-33.942l-14.142-14.14c-9.372-9.372-24.568-9.372-33.94 0l-147.562 146.594c-9.372 9.372-9.372 24.568 0 33.942l147.564 146.594c9.372 9.372 24.568 9.372 33.942 0l14.142-14.142c9.372-9.372 9.372-24.568 0-33.942l-82.452-81.482v-2h359.774v359.774h-2l-81.482-82.448c-9.372-9.372-24.568-9.372-33.942 0l-14.14 14.142c-9.372 9.372-9.374 24.568 0 33.94l146.594 147.564c9.372 9.372 24.568 9.372 33.942 0l146.594-147.564c9.372-9.372 9.372-24.568 0-33.942l-14.142-14.142c-9.372-9.372-24.568-9.372-33.942 0l-81.482 82.45h-2v-359.774h359.774v2l-82.448 81.482c-9.372 9.372-9.372 24.568 0 33.942l14.142 14.14c9.372 9.372 24.568 9.372 33.94 0l147.564-146.594c9.374-9.372 9.372-24.568 0-33.942l-147.564-146.594c-9.372-9.372-24.568-9.372-33.94 0l-14.142 14.14c-9.372 9.372-9.372 24.568 0 33.942l82.448 81.484v2h-359.774v-359.774h2l81.482 82.448c9.372 9.372 24.568 9.372 33.942 0l14.14-14.142c9.372-9.37 9.372-24.566 0-33.94z" />
<glyph unicode="&#xe940;" glyph-name="assistive-listening-systems" d="M435.2-64c-17.674 0-32 14.326-32 32s14.326 32 32 32c82.344 0 149.334 66.99 149.334 149.332 0 170.348 146.782 187.8 146.782 330.668 0 142.334-115.798 258.132-258.134 258.132-142.334 0-258.132-115.798-258.132-258.132 0-17.674-14.326-32-32-32s-32 14.326-32 32c0 177.624 144.508 322.132 322.132 322.132s322.132-144.508 322.132-322.132c0-173.714-146.782-192.082-146.782-330.668 0.002-117.63-95.7-213.332-213.332-213.332zM666.666 480c0 107.632-87.566 195.2-195.2 195.2s-195.2-87.566-195.2-195.2c0-17.674 14.326-32 32-32s32 14.326 32 32c0 72.344 58.856 131.2 131.2 131.2s131.2-58.856 131.2-131.2c0-17.674 14.326-32 32-32s32 14.326 32 32zM879.606 571.968c16.896 5.182 26.39 23.082 21.208 39.976-29.288 95.464-90.768 179.592-173.118 236.882-14.508 10.092-34.452 6.518-44.542-7.992-10.094-14.508-6.516-34.452 7.992-44.542 70.644-49.148 123.376-121.286 148.484-203.118 5.186-16.906 23.090-26.386 39.976-21.206zM1001.382 609.268c16.894 5.188 26.386 23.088 21.202 39.982-37.812 123.176-116.812 231.496-222.466 305.014-14.506 10.092-34.45 6.518-44.544-7.99-10.094-14.506-6.516-34.45 7.99-44.544 93.956-65.376 164.21-161.71 197.836-271.262 5.186-16.894 23.082-26.384 39.982-21.2zM480 448c-17.674 0-32-14.326-32-32s14.326-32 32-32 32 14.326 32 32-14.326 32-32 32zM352 320c-17.674 0-32-14.326-32-32s14.326-32 32-32 32 14.326 32 32-14.326 32-32 32zM160 128c-17.674 0-32-14.326-32-32s14.326-32 32-32 32 14.326 32 32-14.326 32-32 32zM32 0c-17.674 0-32-14.326-32-32s14.326-32 32-32 32 14.326 32 32-14.326 32-32 32zM342.626 150.626l-128 128-45.254-45.254 128-128 45.254 45.254z" />
<glyph unicode="&#xe941;" glyph-name="asterisk" d="M950.62 231.712l-374.62 216.288 374.62 216.288c11.48 6.628 15.412 21.306 8.784 32.784l-8 13.856c-6.628 11.48-21.306 15.412-32.784 8.784l-374.62-216.286v432.574c0 13.254-10.746 24-24 24h-16c-13.254 0-24-10.746-24-24v-432.574l-374.62 216.286c-11.48 6.628-26.158 2.694-32.784-8.784l-8-13.856c-6.628-11.48-2.694-26.158 8.784-32.784l374.62-216.288-374.62-216.288c-11.48-6.628-15.412-21.306-8.784-32.784l8-13.856c6.628-11.48 21.306-15.412 32.784-8.784l374.62 216.286v-432.574c0-13.254 10.746-24 24-24h16c13.254 0 24 10.746 24 24v432.574l374.62-216.286c11.48-6.628 26.158-2.694 32.784 8.784l8 13.856c6.628 11.48 2.694 26.158-8.784 32.784z" />
<glyph unicode="&#xe942;" glyph-name="at" d="M512 944c-274.118 0-496-221.838-496-496 0-274.116 221.838-496 496-496 105.85 0 209.36 34.156 294.184 96.638 11.002 8.104 12.846 23.848 4.19 34.422l-10.148 12.396c-8.036 9.818-22.386 11.766-32.614 4.258-73.752-54.13-163.664-83.714-255.612-83.714-238.746 0-432 193.214-432 432 0 238.75 193.214 432 432 432 236.89 0 432-160.048 432-400 0-145.746-105.638-216.482-232.13-216.482-39.468 0-47.39 21.632-39.006 67.736l64.14 328.142c2.898 14.822-8.452 28.604-23.554 28.604h-24.842c-11.64 0-21.345-8.287-23.537-19.283l-0.025-0.153c-4.588-23.692-5.72-26.928-7.722-51.294-23.458 54.156-77.278 86.046-146.75 86.046-136.088 0-266.352-125.9-266.352-314.054 0-123.174 67.83-196.708 181.446-196.708 79.458 0 141.202 48.556 173.266 93.964-2.422-55.572 34.91-84.426 91.95-84.426 215.294 0 317.116 114.45 317.116 277.908 0 272.372-220.274 464-496 464zM436.16 258.746c-73.362 0-117.16 50.216-117.16 134.332 0 149.38 101.53 243.090 194.434 243.090 77.714 0 116.204-55.58 116.204-131.47 0-116.266-76.738-245.952-193.478-245.952z" />
<glyph unicode="&#xe943;" glyph-name="audio-description" d="M928 832h-832c-53.020 0-96-42.98-96-96v-576c0-53.020 42.98-96 96-96h832c53.020 0 96 42.98 96 96v576c0 53.020-42.98 96-96 96zM960 160c0-17.644-14.356-32-32-32h-832c-17.644 0-32 14.356-32 32v576c0 17.644 14.356 32 32 32h832c17.644 0 32-14.356 32-32v-576zM373.178 354.434h-134.67l-27.016-81.948c-3.252-9.656-12.225-16.486-22.792-16.486 0 0 0 0 0 0h-20.68c-16.552 0-28.134 16.36-22.638 31.972l118.31 336c3.386 9.417 12.24 16.030 22.638 16.030h39.028c10.398 0 19.252-6.613 22.585-15.863l0.053-0.167 118.31-336c5.498-15.612-6.086-31.972-22.638-31.972h-20.68c-10.36 0-19.55 6.648-22.794 16.486l-27.016 81.948zM305.574 573.476s-8.654-37.86-16.226-59.492l-34.072-102.76h100.596l-34.074 102.76c-7.030 21.634-15.142 59.492-15.142 59.492h-1.082zM526.77 616c0 13.254 10.746 24 24 24h106.886c118.444 0 195.786-70.31 195.786-191.46 0-121.148-77.34-192.54-195.786-192.54h-106.886c-13.254 0-24 10.746-24 24v336zM653.868 316.034c77.882 0 127.638 45.972 127.638 132.506 0 85.454-50.838 131.426-127.638 131.426h-57.328v-263.932h57.328z" />
<glyph unicode="&#xe944;" glyph-name="backward" d="M535 397.8l384-318.8c41.2-34.4 105-5.6 105 49.2v639.8c0 54.8-63.8 83.6-105 49.2l-384-321.2c-30.6-25.6-30.6-72.8 0-98.2zM576 446.8l384 321.2v-640l-384 318.8zM23 397.8l384-318.8c41.2-34.4 105-5.6 105 49.2v639.8c0 54.8-63.8 83.6-105 49.2l-384-321.2c-30.6-25.6-30.6-72.8 0-98.2zM64 446.8l384 321.2v-640l-384 318.8z" />
<glyph unicode="&#xe945;" glyph-name="badge-check" d="M1024 448c0 70.992-38.822 136.306-99.196 171.004 18.15 67.222-0.578 140.848-50.766 191.034-50.184 50.188-123.804 68.916-191.036 50.768-34.696 60.372-100.010 99.194-171.002 99.194s-136.306-38.822-171.004-99.196c-67.224 18.152-140.85-0.582-191.036-50.768-50.188-50.186-68.916-123.81-50.766-191.034-60.372-34.696-99.194-100.010-99.194-171.002s38.822-136.306 99.196-171.004c-18.15-67.222 0.578-140.848 50.766-191.038 53.022-53.014 126.91-68.308 191.064-50.812 34.704-60.346 100.002-99.146 170.974-99.146s136.27 38.8 170.974 99.146c65.418-17.84 138.942-1.302 191.064 50.814 50.188 50.188 68.916 123.812 50.766 191.036 60.374 34.698 99.196 100.012 99.196 171.004zM841.71 311.42c10.692-23.556 59.164-108.114-12.926-180.204-57.726-57.722-115.094-42.48-180.206-12.928-9.088-24.206-34.598-118.288-136.578-118.288-104.212 0-129.362 99.066-136.58 118.29-65.222-29.602-122.7-44.572-180.206 12.926-73.492 73.494-21.652 160.98-12.926 180.206-24.204 9.088-118.288 34.598-118.288 136.578 0 104.212 99.066 129.362 118.29 136.58-10.692 23.556-59.164 108.114 12.926 180.204 73.672 73.666 161.512 21.412 180.206 12.928 9.088 24.206 34.598 118.288 136.578 118.288 104.212 0 129.362-99.066 136.58-118.29 23.538 10.684 108.118 59.16 180.206-12.928 73.492-73.49 21.652-160.978 12.926-180.204 24.204-9.088 118.288-34.598 118.288-136.578 0-104.212-99.066-129.362-118.29-136.58zM776.902 589.024l-360.96-358.064c-9.41-9.334-24.606-9.274-33.94 0.136l-171.756 173.144c-9.334 9.41-9.274 24.606 0.136 33.94l17.040 16.902c9.41 9.334 24.606 9.274 33.942-0.136l137.952-139.066 326.882 324.258c9.41 9.334 24.606 9.274 33.94-0.136l16.904-17.040c9.332-9.406 9.27-24.602-0.14-33.938z" />
<glyph unicode="&#xe946;" glyph-name="badge" d="M512-64c-71 0-136.2 38.8-171 99.2-64.2-17.4-138-2.2-191 50.8-50.2 50.2-69 123.8-50.8 191-60.4 34.6-99.2 100-99.2 171s38.8 136.4 99.2 171c-18.2 67.2 0.6 140.8 50.8 191s123.8 69 191 50.8c34.6 60.4 100 99.2 171 99.2s136.4-38.8 171-99.2c67.2 18.2 140.8-0.6 191-50.8s69-123.8 50.8-191c60.4-34.6 99.2-100 99.2-171s-38.8-136.4-99.2-171c18.2-67.2-0.6-140.8-50.8-191-52.2-52.2-125.6-68.6-191-50.8-34.8-60.4-100-99.2-171-99.2zM375.4 118.2c7.2-19.2 32.4-118.2 136.6-118.2 102 0 127.4 94 136.6 118.2 65.2-29.6 122.4-44.8 180.2 13 72 72 23.6 156.6 13 180.2 19.2 7.2 118.2 32.4 118.2 136.6 0 102-94 127.4-118.2 136.6 8.8 19.2 60.6 106.8-13 180.2-72 72-156.6 23.6-180.2 13-7.2 19.2-32.4 118.2-136.6 118.2-102 0-127.4-94-136.6-118.2-18.6 8.4-106.6 60.8-180.2-13-72-72-23.6-156.6-13-180.2-19.2-7.2-118.2-32.4-118.2-136.6 0-102 94-127.4 118.2-136.6-8.8-19.2-60.6-106.8 13-180.2 57.6-57.4 115-42.6 180.2-13z" />
<glyph unicode="&#xe947;" glyph-name="balance-scale" horiz-adv-x="1152" d="M608 644.032c55.208 14.21 96 64.324 96 123.968h232c13.254 0 24 10.746 24 24v16c0 13.254-10.746 24-24 24h-249.166c-49.368 85.306-172.332 85.248-221.666 0h-249.168c-13.254 0-24-10.746-24-24v-16c0-13.254 10.746-24 24-24h232c0-59.642 40.792-109.758 96-123.968v-580.032h-328c-13.254 0-24-10.746-24-24v-16c0-13.254 10.746-24 24-24h720c13.254 0 24 10.746 24 24v16c0 13.254-10.746 24-24 24h-328v580.032zM512 768c0 35.29 28.71 64 64 64s64-28.71 64-64-28.71-64-64-64-64 28.71-64 64zM1151.966 384c-0.002 26.262 3.1 13.446-169.694 289.92-25.010 40.018-83.47 40.118-108.544 0-173.796-278.074-169.694-264.226-169.694-289.92h-0.034c0-110.71 105.342-192 224-192 117.842 0 224 80.614 224 192h-0.034zM928 640l160-256h-320l160 256zM789.526 320h276.95c-61.884-85.36-215.194-85.186-276.95 0zM448 384h-0.034c-0.002 26.262 3.1 13.446-169.694 289.92-25.010 40.018-83.47 40.118-108.544 0-173.796-278.074-169.694-264.226-169.694-289.92h-0.034c0-111.724 106.566-192 224-192 117.568 0 224 80.386 224 192zM224 640l160-256h-320l160 256zM85.526 320h276.95c-61.884-85.36-215.194-85.186-276.95 0z" />
<glyph unicode="&#xe948;" glyph-name="ban" d="M512 944c-273.934 0-496-222.066-496-496s222.066-496 496-496 496 222.066 496 496-222.066 496-496 496zM206.53 142.53c-161.244 161.244-168.298 417.914-21.8 587.486l609.288-609.286c-169.608-146.528-426.276-139.412-587.488 21.8zM839.27 165.984l-609.286 609.286c169.608 146.526 426.274 139.41 587.486-21.8 161.244-161.242 168.298-417.914 21.8-587.486z" />
<glyph unicode="&#xe949;" glyph-name="band-aid" horiz-adv-x="1280" d="M1120 768h-960c-88.2 0-160-71.8-160-160v-320c0-88.2 71.8-160 160-160h960c88.2 0 160 71.8 160 160v320c0 88.2-71.8 160-160 160zM320 192h-160c-53 0-96 43-96 96v320c0 53 43 96 96 96h160v-512zM896 192h-512v512h512v-512zM1216 288c0-53-43-96-96-96h-160v512h160c53 0 96-43 96-96v-320zM544 504c22 0 40 18 40 40s-18 40-40 40-40-18-40-40 18-40 40-40zM736 504c22 0 40 18 40 40s-18 40-40 40-40-18-40-40 18-40 40-40zM544 312c22 0 40 18 40 40s-18 40-40 40-40-18-40-40 18-40 40-40zM736 312c22 0 40 18 40 40s-18 40-40 40-40-18-40-40 18-40 40-40z" />
<glyph unicode="&#xe94a;" glyph-name="bars" horiz-adv-x="896" d="M884 732h-872c-6.627 0-12 5.373-12 12v0 48c0 6.627 5.373 12 12 12v0h872c6.627 0 12-5.373 12-12v0-48c0-6.627-5.373-12-12-12v0zM884 412h-872c-6.627 0-12 5.373-12 12v0 48c0 6.627 5.373 12 12 12v0h872c6.627 0 12-5.373 12-12v0-48c0-6.627-5.373-12-12-12v0zM884 92h-872c-6.627 0-12 5.373-12 12v0 48c0 6.627 5.373 12 12 12v0h872c6.627 0 12-5.373 12-12v0-48c0-6.627-5.373-12-12-12v0z" />
<glyph unicode="&#xe94b;" glyph-name="battery-bolt" horiz-adv-x="1280" d="M1280 592v-288c0-26.51-21.49-48-48-48h-16v-32c0-53.020-42.98-96-96-96h-318.62l36.056 64h282.564c17.646 0 32 14.354 32 32v96h64v256h-64v96c0 17.646-14.354 32-32 32h-181.552c-26.446 18.41-56.458 28.688-86.82 31.32l7.942 30.39c0.202 0.762 0.382 1.526 0.574 2.29h259.856c53.020 0 96-42.98 96-96v-32h16c26.51 0 48-21.49 48-48zM64 224v448c0 17.646 14.354 32 32 32h190.776l6.42 64h-197.196c-53.020 0-96-42.98-96-96v-448c0-53.020 42.98-96 96-96h299.468c0.068 0.266 0.126 0.534 0.194 0.8l15.42 63.2h-315.082c-17.646 0-32 14.354-32 32zM909.232 515.022l-265.904-471.986c-15.244-27.276-43.708-43.036-73.358-43.036-54.59 0-95.29 51.802-81.21 105.368l67.988 278.632h-112.74c-49.48 0-88.3 42.626-83.624 91.928l34.504 344c4.086 43.128 40.302 76.072 83.622 76.072h207.114c55.312 0 95.422-52.544 81.126-105.784l-39.26-150.216h108.416c64.064 0 104.576-69.056 73.326-124.978zM835.904 576h-191.292l60.33 230.814c3.4 12.662-6.156 25.186-19.316 25.186h-207.116c-0.022 0-0.048 0-0.074 0-10.365 0-18.881-7.916-19.832-18.033l-0.006-0.079-0.016-0.174-0.018-0.174-34.48-343.762c-1.046-11.658 8.178-21.78 19.92-21.78h194.234l-87.584-358.902c-3.446-13.11 6.748-25.096 19.312-25.096 5.684 0 13.264 2.694 17.488 10.256l0.108 0.192 265.818 471.832c7.386 13.268-2.24 29.72-17.476 29.72z" />
<glyph unicode="&#xe94c;" glyph-name="battery-empty" horiz-adv-x="1280" d="M1120 704c17.646 0 32-14.354 32-32v-96h64v-256h-64v-96c0-17.646-14.354-32-32-32h-1024c-17.646 0-32 14.354-32 32v448c0 17.646 14.354 32 32 32h1024zM1120 768h-1024c-53.020 0-96-42.98-96-96v-448c0-53.020 42.98-96 96-96h1024c53.020 0 96 42.98 96 96v32h16c26.51 0 48 21.49 48 48v288c0 26.51-21.49 48-48 48h-16v32c0 53.020-42.98 96-96 96z" />
<glyph unicode="&#xe94d;" glyph-name="battery-full" horiz-adv-x="1280" d="M1120 704c17.646 0 32-14.354 32-32v-96h64v-256h-64v-96c0-17.646-14.354-32-32-32h-1024c-17.646 0-32 14.354-32 32v448c0 17.646 14.354 32 32 32h1024zM1120 768h-1024c-53.020 0-96-42.98-96-96v-448c0-53.020 42.98-96 96-96h1024c53.020 0 96 42.98 96 96v32h16c26.51 0 48 21.49 48 48v288c0 26.51-21.49 48-48 48h-16v32c0 53.020-42.98 96-96 96zM256 332v232c0 6.627-5.373 12-12 12v0h-40c-6.627 0-12-5.373-12-12v0-232c0-6.627 5.373-12 12-12v0h40c6.627 0 12 5.373 12 12v0zM384 332v232c0 6.627-5.373 12-12 12v0h-40c-6.627 0-12-5.373-12-12v0-232c0-6.627 5.373-12 12-12v0h40c6.627 0 12 5.373 12 12v0zM512 332v232c0 6.627-5.373 12-12 12v0h-40c-6.627 0-12-5.373-12-12v0-232c0-6.627 5.373-12 12-12v0h40c6.627 0 12 5.373 12 12v0zM640 332v232c0 6.627-5.373 12-12 12v0h-40c-6.627 0-12-5.373-12-12v0-232c0-6.627 5.373-12 12-12v0h40c6.627 0 12 5.373 12 12v0zM768 332v232c0 6.627-5.373 12-12 12v0h-40c-6.627 0-12-5.373-12-12v0-232c0-6.627 5.373-12 12-12v0h40c6.627 0 12 5.373 12 12v0zM896 332v232c0 6.627-5.373 12-12 12v0h-40c-6.627 0-12-5.373-12-12v0-232c0-6.627 5.373-12 12-12v0h40c6.627 0 12 5.373 12 12v0zM1024 332v232c0 6.627-5.373 12-12 12v0h-40c-6.627 0-12-5.373-12-12v0-232c0-6.627 5.373-12 12-12v0h40c6.627 0 12 5.373 12 12v0z" />
<glyph unicode="&#xe94e;" glyph-name="battery-half" horiz-adv-x="1280" d="M1120 704c17.646 0 32-14.354 32-32v-96h64v-256h-64v-96c0-17.646-14.354-32-32-32h-1024c-17.646 0-32 14.354-32 32v448c0 17.646 14.354 32 32 32h1024zM1120 768h-1024c-53.020 0-96-42.98-96-96v-448c0-53.020 42.98-96 96-96h1024c53.020 0 96 42.98 96 96v32h16c26.51 0 48 21.49 48 48v288c0 26.51-21.49 48-48 48h-16v32c0 53.020-42.98 96-96 96zM256 332v232c0 6.627-5.373 12-12 12v0h-40c-6.627 0-12-5.373-12-12v0-232c0-6.627 5.373-12 12-12v0h40c6.627 0 12 5.373 12 12v0zM384 332v232c0 6.627-5.373 12-12 12v0h-40c-6.627 0-12-5.373-12-12v0-232c0-6.627 5.373-12 12-12v0h40c6.627 0 12 5.373 12 12v0zM512 332v232c0 6.627-5.373 12-12 12v0h-40c-6.627 0-12-5.373-12-12v0-232c0-6.627 5.373-12 12-12v0h40c6.627 0 12 5.373 12 12v0zM640 332v232c0 6.627-5.373 12-12 12v0h-40c-6.627 0-12-5.373-12-12v0-232c0-6.627 5.373-12 12-12v0h40c6.627 0 12 5.373 12 12v0z" />
<glyph unicode="&#xe94f;" glyph-name="battery-quarter" horiz-adv-x="1280" d="M1120 704c17.646 0 32-14.354 32-32v-96h64v-256h-64v-96c0-17.646-14.354-32-32-32h-1024c-17.646 0-32 14.354-32 32v448c0 17.646 14.354 32 32 32h1024zM1120 768h-1024c-53.020 0-96-42.98-96-96v-448c0-53.020 42.98-96 96-96h1024c53.020 0 96 42.98 96 96v32h16c26.51 0 48 21.49 48 48v288c0 26.51-21.49 48-48 48h-16v32c0 53.020-42.98 96-96 96zM256 332v232c0 6.627-5.373 12-12 12v0h-40c-6.627 0-12-5.373-12-12v0-232c0-6.627 5.373-12 12-12v0h40c6.627 0 12 5.373 12 12v0zM384 332v232c0 6.627-5.373 12-12 12v0h-40c-6.627 0-12-5.373-12-12v0-232c0-6.627 5.373-12 12-12v0h40c6.627 0 12 5.373 12 12v0z" />
<glyph unicode="&#xe950;" glyph-name="battery-slash" horiz-adv-x="1280" d="M667.050 192l46-64h-617.050c-53.020 0-96 42.98-96 96v448c0 53.020 42.98 96 96 96h157.050l46-64h-203.050c-17.644 0-32-14.354-32-32v-448c0-17.646 14.356-32 32-32h571.050zM1280 592v-288c0-26.51-21.49-48-48-48h-16v-32c0-53.020-42.98-96-96-96h-211.274l104.432-145.296c7.74-10.768 5.284-25.768-5.482-33.508l-12.080-8.682c-3.874-2.822-8.729-4.514-13.978-4.514-0.005 0-0.010 0-0.014 0h0.001c-0.011 0-0.023 0-0.036 0-7.995 0-15.075 3.913-19.432 9.928l-0.048 0.070-695.246 967.298c-7.74 10.768-5.284 25.768 5.482 33.508l12.080 8.682c3.874 2.822 8.729 4.514 13.978 4.514 0.005 0 0.010 0 0.014 0h-0.001c7.468 0 14.826-3.472 19.516-9.998l130.814-182.002h671.274c53.020 0 96-42.98 96-96v-32h16c26.51 0 48-21.49 48-48zM1216 576h-64v96c0 17.646-14.356 32-32 32h-625.274l368-512h257.274c17.644 0 32 14.354 32 32v96h64v256z" />
<glyph unicode="&#xe951;" glyph-name="battery-three-quarters" horiz-adv-x="1280" d="M1120 704c17.646 0 32-14.354 32-32v-96h64v-256h-64v-96c0-17.646-14.354-32-32-32h-1024c-17.646 0-32 14.354-32 32v448c0 17.646 14.354 32 32 32h1024zM1120 768h-1024c-53.020 0-96-42.98-96-96v-448c0-53.020 42.98-96 96-96h1024c53.020 0 96 42.98 96 96v32h16c26.51 0 48 21.49 48 48v288c0 26.51-21.49 48-48 48h-16v32c0 53.020-42.98 96-96 96zM256 332v232c0 6.627-5.373 12-12 12v0h-40c-6.627 0-12-5.373-12-12v0-232c0-6.627 5.373-12 12-12v0h40c6.627 0 12 5.373 12 12v0zM384 332v232c0 6.627-5.373 12-12 12v0h-40c-6.627 0-12-5.373-12-12v0-232c0-6.627 5.373-12 12-12v0h40c6.627 0 12 5.373 12 12v0zM512 332v232c0 6.627-5.373 12-12 12v0h-40c-6.627 0-12-5.373-12-12v0-232c0-6.627 5.373-12 12-12v0h40c6.627 0 12 5.373 12 12v0zM640 332v232c0 6.627-5.373 12-12 12v0h-40c-6.627 0-12-5.373-12-12v0-232c0-6.627 5.373-12 12-12v0h40c6.627 0 12 5.373 12 12v0zM768 332v232c0 6.627-5.373 12-12 12v0h-40c-6.627 0-12-5.373-12-12v0-232c0-6.627 5.373-12 12-12v0h40c6.627 0 12 5.373 12 12v0zM896 332v232c0 6.627-5.373 12-12 12v0h-40c-6.627 0-12-5.373-12-12v0-232c0-6.627 5.373-12 12-12v0h40c6.627 0 12 5.373 12 12v0z" />
<glyph unicode="&#xe952;" glyph-name="bed" horiz-adv-x="1152" d="M64 808v-488h1064c13.254 0 24-10.746 24-24v-232h-64v192h-1024v-192h-64v744c0 13.254 10.746 24 24 24h16c13.254 0 24-10.746 24-24zM128 576c0 106.038 85.962 192 192 192s192-85.962 192-192-85.962-192-192-192-192 85.962-192 192zM192 576c0-70.58 57.42-128 128-128s128 57.42 128 128-57.42 128-128 128-128-57.42-128-128zM1152 512v-128h-576v272c0 26.51 21.49 48 48 48h336c106.038 0 192-85.962 192-192zM1088 512c0 70.58-57.42 128-128 128h-320v-192h448v64z" />
<glyph unicode="&#xe953;" glyph-name="beer" horiz-adv-x="896" d="M768 768h-64v32c0 53.020-42.98 96-96 96h-512c-53.020 0-96-42.98-96-96v-704c0-53.020 42.98-96 96-96h512c53.020 0 96 42.98 96 96v44.224l121.242 60.622c43.644 21.822 70.758 65.692 70.758 114.486v324.668c0 70.58-57.42 128-128 128zM640 96c0-17.644-14.356-32-32-32h-512c-17.644 0-32 14.356-32 32v704c0 17.644 14.356 32 32 32h512c17.644 0 32-14.356 32-32v-704zM832 315.332c0-24.398-13.556-46.332-35.378-57.244l-92.622-46.312v492.224h64c35.29 0 64-28.71 64-64v-324.668zM384 672v-448c0-17.674-14.328-32-32-32s-32 14.326-32 32v448c0 17.674 14.328 32 32 32s32-14.326 32-32zM256 672v-448c0-17.674-14.328-32-32-32s-32 14.326-32 32v448c0 17.674 14.328 32 32 32s32-14.326 32-32zM512 672v-448c0-17.674-14.326-32-32-32s-32 14.326-32 32v448c0 17.674 14.326 32 32 32s32-14.326 32-32z" />
<glyph unicode="&#xe954;" glyph-name="bell-slash" horiz-adv-x="1152" d="M224.096 128c-28.446 0-42.662 34.592-22.628 54.628 65.202 65.2 112.136 137.694 117.924 321.664l-62.984 55.786c-0.255-4.789-0.403-10.409-0.408-16.063v-0.015c0-216.236-55.286-271.618-99.786-316.118-60.298-60.298-17.564-163.882 67.882-163.882h223.904c0-70.58 57.42-128 128-128s128 57.42 128 128h112.498l-72.258 64h-520.144zM576 0c-35.29 0-64 28.71-64 64h128c0-35.29-28.71-64-64-64zM1143.846-9.852l-134.762 118.842c21.936 35.336 21.376 84.202-13.316 118.894-44.5 44.498-99.768 99.88-99.768 316.116 0 158.788-115.662 290.538-267.326 315.66 7.088 10.123 11.326 22.694 11.326 36.255 0 0.030 0 0.060 0 0.089v-0.005c0 35.346-28.654 64-64 64s-64-28.654-64-64c0-13.5 4.19-26.016 11.326-36.34-87.848-14.552-163.58-64.902-211.786-135.534l-260.606 229.818c-10.004 8.82-25.296 7.898-34.156-2.062l-10.694-12.022c-8.86-9.96-7.932-25.184 2.070-34.006l1092.912-963.796c10.004-8.822 25.296-7.898 34.156 2.062l10.696 12.022c8.858 9.958 7.932 25.184-2.072 34.006zM576 800c141.48 0 256-114.498 256-256 0-212.838 48.412-291.27 118.514-361.372 8.504-8.504 10.832-19.576 8.548-29.526l-599.088 528.31c45.416 71.304 125.128 118.588 216.026 118.588z" />
<glyph unicode="&#xe955;" glyph-name="bell" horiz-adv-x="896" d="M867.768 227.882c-44.5 44.5-99.768 99.882-99.768 316.118 0 158.788-115.662 290.538-267.326 315.66 7.088 10.123 11.326 22.694 11.326 36.255 0 0.030 0 0.060 0 0.089v-0.005c0 35.346-28.654 64-64 64s-64-28.654-64-64c0-13.5 4.19-26.016 11.326-36.34-151.664-25.122-267.326-156.872-267.326-315.66 0-216.236-55.286-271.618-99.786-316.118-60.298-60.298-17.564-163.882 67.882-163.882h223.904c0-70.58 57.42-128 128-128s128 57.42 128 128h223.886c85.276 0 128.302 103.462 67.882 163.882zM448 0c-35.29 0-64 28.71-64 64h128c0-35.29-28.71-64-64-64zM799.886 128h-703.79c-28.446 0-42.662 34.592-22.628 54.628 69.702 69.7 118.532 147.722 118.532 361.372 0 141.482 114.498 256 256 256 141.48 0 256-114.498 256-256 0-212.838 48.412-291.27 118.514-361.372 20.114-20.116 5.706-54.628-22.628-54.628z" />
<glyph unicode="&#xe956;" glyph-name="bicycle" horiz-adv-x="1280" d="M1024.606 576c-39.172 0.094-76.294-8.626-109.518-24.264l-168.072 265.386c-5.765 8.999-15.713 14.878-27.034 14.878 0 0 0 0 0 0h-135.996c-13.254 0-24-10.746-24-24v-16c0-13.254 10.744-24 24-24h118.386l81.064-128h-271.448v40c0 13.254-10.744 24-24 24h-167.996c-17.672 0-32-14.326-32-32s14.326-32 32-32h111.998l-63.616-89.938c-34.17 16.724-72.606 26.070-113.244 25.936-141.256-0.466-255.132-114.738-255.13-255.998 0.002-141.384 114.614-256 255.994-256 119.282 0 219.51 81.586 247.928 192h104.062c10.801 0.001 20.352 5.352 26.147 13.548l0.067 0.1 201.488 287.848 25.354-40.036c-56.77-46.898-92.974-117.806-93.062-197.174-0.154-139.926 113.686-254.998 253.602-256.276 141.118-1.288 256.202 111.684 258.386 251.99 2.198 141.006-114.34 259.658-255.36 260zM255.994 128c-105.866 0-191.996 86.13-191.996 192s86.128 192 191.996 192c26.614 0 51.978-5.448 75.042-15.278l-133.256-190.37c-14.84-21.198 0.386-50.352 26.214-50.352h213.012c-26.414-74.496-97.576-128-181.012-128zM447.99 320h-162.536l99.488 142.13c38.708-35.15 63.048-85.85 63.048-142.13zM591.326 320h-79.338c0 78.080-34.966 147.984-90.080 194.94l42.742 61.060h305.87l-179.194-256zM1016.392 128.146c-100.116 3.876-181.056 85.354-184.308 185.494-1.922 59.14 23.066 112.606 63.62 149.092l105.518-166.612c7.092-11.198 21.918-14.526 33.116-7.434l13.516 8.562c11.198 7.092 14.526 21.92 7.434 33.116l-105.57 166.692c22.854 9.622 47.944 14.946 74.256 14.946 105.866 0 191.996-86.13 191.996-192 0.002-108.388-90.272-196.086-199.578-191.856z" />
<glyph unicode="&#xe957;" glyph-name="binoculars" d="M896 720c0 26.51-21.49 48-48 48h-16v80c0 26.51-21.49 48-48 48h-160c-26.51 0-48-21.49-48-48v-80h-128v80c0 26.51-21.49 48-48 48h-160c-26.51 0-48-21.49-48-48v-80h-16c-26.51 0-48-21.49-48-48 0-208-128-240-128-528v-96c0-53.020 42.98-96 96-96h192c53.020 0 96 42.98 96 96v264c0 13.254 10.746 24 24 24h208c13.254 0 24-10.746 24-24v-264c0-53.020 42.98-96 96-96h192c53.020 0 96 42.98 96 96v96c0 288-128 320-128 528zM320 96c0-17.644-14.356-32-32-32h-192c-17.644 0-32 14.356-32 32v32h256v-32zM384 444.646c-36.89-10.476-64-44.444-64-84.646v-168h-256c0 63.71 6.754 118.916 20.65 168.774 12.258 43.984 28.266 78.594 45.214 115.238 29.034 62.776 59.008 127.584 61.908 227.988h192.228v-259.354zM384 768h-128v64h128v-64zM576 448h-128v256h128v-256zM640 832h128v-64h-128v64zM640 444.646v259.354h192.228c2.9-100.404 32.874-165.212 61.908-227.988 16.948-36.644 32.956-71.256 45.214-115.238 13.896-49.858 20.65-105.064 20.65-168.774h-256v168c0 40.202-27.11 74.17-64 84.646zM928 64h-192c-17.644 0-32 14.356-32 32v32h256v-32c0-17.644-14.356-32-32-32z" />
<glyph unicode="&#xe958;" glyph-name="blind" horiz-adv-x="768" d="M413.634-19.918c6.668-16.368-1.196-35.042-17.56-41.708-16.332-6.658-35.030 1.164-41.708 17.56l-134.086 329.114 31.098 93.296 162.256-398.262zM205.326 716.938c-0.9 1.276-1.439 2.864-1.439 4.577 0 4.419 3.582 8.001 8.001 8.001 2.705 0 5.097-1.343 6.545-3.398l0.017-0.025 225.866-323.824c7.63-10.936 22.614-13.484 33.416-5.952 10.712 7.474 13.592 22.464 5.952 33.416l-240 344c-4.386 6.236-11.55 10.26-19.655 10.26-0.010 0-0.021 0-0.031 0h0.002v0.008l-64-0.026c-6.588-0.002-13.148-2.674-17.886-7.97l-142.114-158.834v-201.17c0-13.254 10.746-24 24-24s24 10.746 24 24v182.83l96 107.292v-396.93l-110.358-331.064c-5.59-16.766 3.472-34.888 20.238-40.476 16.762-5.588 34.888 3.47 40.476 20.238l145.644 436.916v272.42l-34.674 49.712zM766.776-51.748l-275.194 438.822c-3.79-3.593-8.299-6.473-13.283-8.396l-0.277-0.094 275.2-438.832c1.429-2.314 3.952-3.834 6.83-3.834 4.418 0 8 3.582 8 8 0 1.61-0.476 3.109-1.294 4.365l0.019-0.031zM192 960c-44.182 0-80-35.818-80-80s35.818-80 80-80 80 35.818 80 80-35.818 80-80 80z" />
<glyph unicode="&#xe959;" glyph-name="bold" horiz-adv-x="640" d="M498.278 475.744c67.844 37.976 106.44 107.006 106.44 191.496 0 84.842-38.998 161.426-99.33 195.1-40.266 22.65-90.432 33.66-153.368 33.66h-328.020c-13.254 0-24-10.746-24-24v-16c0-13.254 10.746-24 24-24h39.9v-768h-39.9c-13.254 0-24-10.746-24-24v-16c0-13.254 10.746-24 24-24h339.36c39.868 0 91.244 2.354 134.986 20.696 86.050 35.742 141.654 126.81 141.654 232.004 0 104.992-56.392 192.744-141.722 223.044zM132.082 831.598h219.938c49.858 0 87.388-8.306 114.714-25.384 42.76-26.878 67.284-77.074 67.284-137.716 0-99.062-64.53-165.62-160.578-165.62h-241.358v328.72zM466.47 80.228c-25.17-10.65-58.898-15.828-103.11-15.828h-231.278v374.080h248.916c112.628 0 188.302-75.674 188.302-188.302 0-80.416-38.4-143.932-102.83-169.95z" />
<glyph unicode="&#xe95a;" glyph-name="bolt" horiz-adv-x="640" d="M372.142 896c21.030 0 36.36-19.982 30.906-40.298l-66.512-247.702h207.356c24.352 0 39.808-26.362 27.93-47.618l-303.888-543.978c-5.594-9.856-16.017-16.399-27.967-16.404h-0.001c-20.292 0-36.374 19.378-30.914 40.148l98.8 375.852h-211.844c-18.818 0-33.638 16.24-31.856 35.022l39.432 415.998c1.528 16.313 15.153 28.98 31.737 28.98 0.042 0 0.084 0 0.126 0h236.696zM372.142 960h-236.702c-49.51 0-90.898-37.65-95.572-86.938l-39.432-416c-5.342-56.346 39.022-105.062 95.572-105.062h128.846l-77.7-295.58c-16.092-61.216 30.422-120.42 92.812-120.42 33.886 0 66.418 18.010 83.838 49.184l303.89 543.986c35.714 63.908-10.584 142.83-83.804 142.83h-123.902l44.87 167.104c16.338 60.844-29.502 120.896-92.716 120.896z" />
<glyph unicode="&#xe95b;" glyph-name="bomb" d="M841.4 822.6l-112-112-76.2 76.2c-25 25-65.6 25-90.6 0l-34.2-34.2c-35.8 10-73.6 15.4-112.6 15.4-223.8 0-409.2-179.8-415.6-403.6-6.8-235.4 182-428.4 415.8-428.4 230.2 0 416 188.4 416 416 0 39-5.4 76.8-15.4 112.6l34.2 34.2c25 25 25 65.6 0 90.6l-76.2 76.2 112 112-45.2 45zM744.8 483.4c11.6-41 23.2-75.6 23.2-131.4 0-192.4-157-352-352-352-48.4 0-95.4 9.6-139.4 28.6-130.4 56.4-216.8 186.8-212.4 334 5.4 189.2 162.2 341.4 351.8 341.4 55.8 0 90.2-11.6 131.4-23.2l60.6 60.6 197.4-197.4s-3.6-3.8-60.6-60.6zM1024 816c0-13.2-10.8-24-24-24h-48c-13.2 0-24 10.8-24 24s10.8 24 24 24h48c13.2 0 24-10.8 24-24zM904 936v-48c0-13.2-10.8-24-24-24s-24 10.8-24 24v48c0 13.2 10.8 24 24 24s24-10.8 24-24zM914 850c-9.4 9.4-9.4 24.6 0 34l34 34c9.4 9.4 24.6 9.4 34 0s9.4-24.6 0-34l-34-34c-9.4-9.4-24.6-9.4-34 0zM778.2 883.8c-9.4 9.4-9.4 24.6 0 34s24.6 9.4 34 0l34-34c9.4-9.4 9.4-24.6 0-34s-24.6-9.4-34 0l-34 34zM981.8 748.2c9.4-9.4 9.4-24.6 0-34s-24.6-9.4-34 0l-34 34c-9.4 9.4-9.4 24.6 0 34s24.6 9.4 34 0l34-34zM384 576c0-17.6-14.4-32-32-32-70.6 0-128-57.4-128-128 0-17.6-14.4-32-32-32s-32 14.4-32 32c0 105.8 86.2 192 192 192 17.6 0 32-14.4 32-32z" />
<glyph unicode="&#xe95c;" glyph-name="book-heart" horiz-adv-x="896" d="M460.2 344.2c11-11 28.6-11 39.6 0l169.4 171.2c49.2 49.8 46.4 132.2-8.6 178.2-27.8 23.2-95.4 57-180.4-29-85.2 86-152.8 52.2-180.4 29-55-46-57.8-128.4-8.6-178.2l169-171.2zM340.6 644.4c27.4 23 62.4 6.8 76.8-7.4l62.8-63.4 62.8 63.4c14.2 14.4 49.2 30.4 76.8 7.4 28.8-24 24.6-63.2 4.2-84l-144-145.2-143.6 145.2c-20.6 20.8-24.6 60 4.2 84zM896 176v736c0 26.6-21.4 48-48 48h-688c-88.4 0-160-71.6-160-160v-704c0-88.4 71.6-160 160-160h712c13.2 0 24 10.8 24 24v16c0 13.2-10.8 24-24 24h-6.6c-8 40.4-6.4 99.4 0.8 131.6 17.4 7.2 29.8 24.4 29.8 44.4zM808.6 0h-648.6c-128 0-128 128 0 128h648.6c-5.8-37.6-6.2-87.2 0-128zM832 192h-672c-36 0-69.2-12-96-32v640c0 53 43 96 96 96h672v-704z" />
<glyph unicode="&#xe95d;" glyph-name="book" horiz-adv-x="896" d="M712 640h-336c-13.2 0-24 10.8-24 24v16c0 13.2 10.8 24 24 24h336c13.2 0 24-10.8 24-24v-16c0-13.2-10.8-24-24-24zM736 536v16c0 13.2-10.8 24-24 24h-336c-13.2 0-24-10.8-24-24v-16c0-13.2 10.8-24 24-24h336c13.2 0 24 10.8 24 24zM865.4 0h6.6c13.2 0 24-10.8 24-24v-16c0-13.2-10.8-24-24-24h-712c-88.4 0-160 71.6-160 160v704c0 88.4 71.6 160 160 160h688c26.6 0 48-21.4 48-48v-736c0-20-12.4-37.2-29.8-44.4-7.2-32.2-8.8-91.2-0.8-131.6zM256 192h576v704h-576v-704zM64 160c26.8 20 60 32 96 32h32v704h-32c-53 0-96-43-96-96v-640zM808.6 0c-6.2 40.8-5.8 90.4 0 128h-648.6c-128 0-128-128 0-128h648.6z" />
<glyph unicode="&#xe95e;" glyph-name="bookmark" horiz-adv-x="768" d="M672 960h-576c-53.020 0-96-42.98-96-96v-928l384 224 384-224v928c0 53.020-42.98 96-96 96zM704 47.426l-320 186.666-320-186.666v816.574c0 17.644 14.356 32 32 32h576c17.644 0 32-14.356 32-32v-816.574z" />
<glyph unicode="&#xe95f;" glyph-name="bowling-ball" horiz-adv-x="992" d="M496 944c-274 0-496-222-496-496s222-496 496-496 496 222 496 496-222 496-496 496zM496 16c-238.2 0-432 193.8-432 432s193.8 432 432 432 432-193.8 432-432-193.8-432-432-432zM304 640c-35.4 0-64-28.6-64-64s28.6-64 64-64 64 28.6 64 64-28.6 64-64 64zM528 704c0 35.4-28.6 64-64 64s-64-28.6-64-64 28.6-64 64-64 64 28.6 64 64zM496 576c-35.4 0-64-28.6-64-64s28.6-64 64-64 64 28.6 64 64-28.6 64-64 64z" />
<glyph unicode="&#xe960;" glyph-name="box-alt" horiz-adv-x="896" d="M895.8 608c0 21.2-5.2 42-15.2 60.6l-98.2 183.8c-8.6 26-33 43.6-60.6 43.6h-547.6c-27.6 0-52-17.6-60.8-43.8l-98.2-183.8c-10-18.6-15.2-39.4-15.2-60.6 0.2-121 0-543.8 0-543.8 0-35.4 28.6-64 64-64h768c35.4 0 64 28.6 64 64 0 0-0.2 422.8-0.2 544zM721.8 832l101.6-192h-251.2l-24 192h173.6zM384 576h128v-128h-128v128zM483.8 832l24-192h-119.6l24 192h71.6zM174.2 832h173.6l-24-192h-251.2l101.6 192zM64 64s0.2 362.2 0.2 512h255.8v-128c0-35.4 28.6-64 64-64h128c35.4 0 64 28.6 64 64v128h255.8c0-149.8 0.2-512 0.2-512h-768z" />
<glyph unicode="&#xe961;" glyph-name="box-check" horiz-adv-x="1280" d="M985 693.2l-67.2 201.2c-13 39.2-49.6 65.6-91 65.6h-629.6c-41.4 0-78-26.4-91-65.6l-101.2-303.6c-3.2-9.8-5-20-5-30.4v-528.4c0-53 43-96 96-96h800c212 0 384 172 384 384 0 181.4-126 333-295 373.2zM544 896h282.8c13.8 0 26-8.8 30.4-21.8l57-171c-6 0.2-12 1-18.2 1-113.6 0-215.4-49.6-285.6-128h-66.4v319.8zM166.8 874.2c4.4 13 16.6 21.8 30.4 21.8h282.8v-320h-412.6l99.4 298.2zM96 0c-17.6 0-32 14.4-32 32v480h499.8c-32.8-56.6-51.8-122-51.8-192 0-133.6 68.4-251.2 172-320h-588zM896 0c-176.4 0-320 143.6-320 320s143.6 320 320 320 320-143.6 320-320-143.6-320-320-320zM1025.2 443.4c-6.2 6.2-16.2 6.2-22.4 0l-139.8-138.6-60.6 61.2c-6.2 6.2-16.2 6.2-22.4 0l-37.4-37.2c-6.2-6.2-6.2-16.2 0-22.4l108.8-109.8c6.2-6.2 16.2-6.2 22.4 0l188.4 187c6.2 6.2 6.2 16.2 0 22.4l-37 37.4z" />
<glyph unicode="&#xe962;" glyph-name="box-full" horiz-adv-x="1280" d="M1276.6 480.4l-103 205.6c-5.6 11.2-17 18-29.2 18-2 0 8.6 1.4-112.6-14l52.4 143.6c12 33.2-5 70-38.2 82l-111.4 40.6c-33 12-69.8-5-82-38.2l-85.6-235.4c-5.6 154-131.6 277.4-287 277.4-150.6 0-272.6-116-285.4-263.2-59 7.6-56.6 7.2-59 7.2-12.2 0-23.6-7-29.2-18l-103-205.6c-9.2-18.4 0.6-40.4 20.2-46l104.4-29.8v-294.6c0-29.4 20-55 48.4-62l432.4-108.2c27.2-6.8 50-3 62 0l432.8 108.2c28.4 7.2 48.4 32.8 48.4 62v294.6l104.2 29.8c19.8 5.6 29.4 27.6 20.4 46zM912.8 896l111.2-40.4-63.6-174.6-132-16.8 84.4 231.8zM77.6 485.4l76 152 380.8-48.6-120.2-199.6-336.6 96.2zM608 6l-416 104v276.2c246.6-70.4 230-66.2 236.6-66.2 11.2 0 22 5.8 28 15.8l151.4 251.2v-581zM640 640c-191.4 24.4-309.2 39.4-382.2 48.8 8.6 115.6 104.4 207.2 222.2 207.2 123.6 0 224-100.4 224-224 0-8.2-1.2-16.2-2.2-24.2l-61.8-7.8zM1088 110l-416-104v581l151.4-251c6-10 16.8-15.8 28-15.8 6.6 0-10.4-4.2 236.6 66.2v-276.4zM865.8 389.4l-120.2 199.6 380.8 48.6 76-152-336.6-96.2z" />
<glyph unicode="&#xe963;" glyph-name="box-heart" horiz-adv-x="896" d="M895.8 608c0 21.2-5.2 42-15.2 60.6l-98.2 183.8c-8.6 26-33 43.6-60.6 43.6h-547.6c-27.6 0-52-17.6-60.8-43.8l-98.2-183.8c-10-18.6-15.2-39.4-15.2-60.6 0.2-121 0-543.8 0-543.8 0-35.4 28.6-64 64-64h768c35.4 0 64 28.6 64 64 0 0-0.2 422.8-0.2 544zM480 832h241.8l101.6-192h-343.4v192zM174.2 832h241.8v-192h-343.4l101.6 192zM448 64h-384s0.2 362.2 0.2 512h767.8c0-149.8 0.2-512 0.2-512h-384.2zM628.4 485.6c-27.8 23.2-95.4 57-180.4-29-85.2 86-152.8 52.2-180.4 29-55-46-57.8-128.4-8.6-178.2l169.4-171.2c11-11 28.6-11 39.6 0l169.4 171.2c49 49.8 46 132.2-9 178.2zM591.6 352.6l-143.6-145.4-143.6 145.2c-20.4 20.6-24.6 60 4.2 84 27.4 23 62.4 6.8 76.8-7.4l62.8-63.4 62.8 63.4c14.2 14.4 49.2 30.4 76.8 7.4 28.4-24 24.4-63.2 3.8-83.8z" />
<glyph unicode="&#xe964;" glyph-name="box-open" horiz-adv-x="1216" d="M1212.8 672.4l-97.8 205.6c-5.4 11.2-16.2 18-27.8 18-1.2 0-479.2-64-479.2-64s-478 64-479.2 64c-11.6 0-22.4-7-27.8-18l-97.8-205.6c-8.8-18.4 0.6-40.4 19.2-46l99-29.8v-422.6c0-29.4 19-55 46-62l410.8-108.2c26-6.8 47.4-3 59 0l411.2 108.2c27 7.2 46 32.8 46 62v422.6l99 29.8c18.8 5.6 28 27.6 19.4 46zM146 829.4l361.8-48.6-114.2-199.6-319.8 96.2 72.2 152zM182.4 578.2c234.2-70.4 218.6-66.2 224.8-66.2 10.8 0 21 5.8 26.6 15.8l143.8 251v-708.8l-395.2 104v404.2zM1033.6 174l-395.2-104v709l143.8-251c5.8-10 16-15.8 26.6-15.8 6.2 0-10-4.2 224.8 66.2v-404.4zM822.6 581.4l-114.2 199.6 361.6 48.4 72.2-152-319.6-96z" />
<glyph unicode="&#xe965;" glyph-name="box-up" d="M816 192h-608c-8.8 0-16-7.2-16-16v-32c0-8.8 7.2-16 16-16h608c8.8 0 16 7.2 16 16v32c0 8.8-7.2 16-16 16zM896 960h-768c-70.6 0-128-57.4-128-128v-768c0-70.6 57.4-128 128-128h768c70.6 0 128 57.4 128 128v768c0 70.6-57.4 128-128 128zM960 64c0-35.2-28.8-64-64-64h-768c-35.2 0-64 28.8-64 64v768c0 35.2 28.8 64 64 64h768c35.2 0 64-28.8 64-64v-768zM217 556l71 88.8v-308.8c0-8.8 7.2-16 16-16h32c8.8 0 16 7.2 16 16v308.8l71-88.8c9.2-11.6 29-17.6 45-5 13.8 11 16 31.2 5 45l-128 160c-12.2 15.2-37.8 15.2-50 0l-128-160c-11-13.8-8.8-34 5-45s34-8.8 45 5zM729 756c-12.2 15.2-37.8 15.2-50 0l-128-160c-11-13.8-8.8-34 5-45s34-8.8 45 5l71 88.8v-308.8c0-8.8 7.2-16 16-16h32c8.8 0 16 7.2 16 16v308.8l71-88.8c9.2-11.6 29-17.6 45-5 13.8 11 16 31.2 5 45l-128 160z" />
<glyph unicode="&#xe966;" glyph-name="box-usd" horiz-adv-x="896" d="M498.8 338.2l-83.2 25c-8.4 2.6-14.4 11.2-14.4 21.2 0 12 8.6 21.8 19.4 21.8h51.8c7.8 0 15.4-2.2 22-6.2 6.4-3.8 14.6-2.4 20 2.8l22.8 21.8c7 6.8 6.8 18.4-1 24.2-16.4 12-36 19.2-56.2 20.6v26.6c0 8.8-7.2 16-16 16h-32c-8.8 0-16-7.2-16-16v-26.8c-43.8-2.6-78.8-39.2-78.8-85 0-38 24.6-71.8 60-82.4l83.2-25c8.4-2.6 14.4-11.2 14.4-21.2 0-12-8.6-21.8-19.4-21.8h-51.8c-7.8 0-15.4 2.2-22 6.2-6.4 3.8-14.6 2.4-20-2.8l-22.8-21.8c-7-6.8-6.8-18.4 1-24.2 16.4-12 36-19.2 56.2-20.6v-26.6c0-8.8 7.2-16 16-16h32c8.8 0 16 7.2 16 16v26.8c43.8 2.6 78.8 39.2 78.8 85 0 37.8-24.8 71.8-60 82.4zM895.8 608c0 21.2-5.2 42-15.2 60.6l-98.2 183.8c-8.6 26-33 43.6-60.6 43.6h-547.6c-27.6 0-52-17.6-60.8-43.8l-98.2-183.8c-10-18.6-15.2-39.4-15.2-60.6 0.2-121 0-543.8 0-543.8 0-35.4 28.6-64 64-64h768c35.4 0 64 28.6 64 64 0 0-0.2 422.8-0.2 544zM480 832h241.8l101.6-192h-343.4v192zM174.2 832h241.8v-192h-343.4l101.6 192zM64 64s0.2 362.2 0.2 512h767.8c0-149.8 0.2-512 0.2-512h-768.2z" />
<glyph unicode="&#xe967;" glyph-name="box" d="M1019 590.8l-101.2 303.6c-13 39.2-49.6 65.6-91 65.6h-629.6c-41.4 0-78-26.4-91-65.6l-101.2-303.6c-3.2-9.8-5-20-5-30.4v-528.4c0-53 43-96 96-96h832c53 0 96 43 96 96v528.4c0 10.4-1.6 20.6-5 30.4zM64 560.4c0 3.4 0.6 6.8 1.6 10.2l101.2 303.6c4.4 13 16.6 21.8 30.4 21.8h282.8v-336l-416 0.4zM960 32c0-17.6-14.4-32-32-32h-832c-17.6 0-32 14.4-32 32v464h896v-464zM960 560h-416v336h282.8c13.8 0 26-8.8 30.4-21.8l101.2-303.6c1-3.2 1.6-6.6 1.6-10.2v-0.4z" />
<glyph unicode="&#xe968;" glyph-name="boxes-alt" horiz-adv-x="1280" d="M1248 512h-288v416c0 17.6-14.4 32-32 32h-576c-17.6 0-32-14.4-32-32v-416h-288c-17.6 0-32-14.4-32-32v-512c0-17.6 14.4-32 32-32h1216c17.6 0 32 14.4 32 32v512c0 17.6-14.4 32-32 32zM1024 448v-128h-128v128h128zM576 896h128v-128h-128v128zM384 896h128v-128c0-35.4 28.6-64 64-64h128c35.4 0 64 28.6 64 64v128h128v-384h-512v384zM256 448h128v-128h-128v128zM608 0h-544v448h128v-128c0-35.4 28.6-64 64-64h128c35.4 0 64 28.6 64 64v128h160v-448zM1216 0h-544v448h160v-128c0-35.4 28.6-64 64-64h128c35.4 0 64 28.6 64 64v128h128v-448z" />
<glyph unicode="&#xe969;" glyph-name="boxes" horiz-adv-x="1280" d="M1248 512h-288v416c0 17.6-14.4 32-32 32h-576c-17.6 0-32-14.4-32-32v-416h-288c-17.6 0-32-14.4-32-32v-512c0-17.6 14.4-32 32-32h1216c17.6 0 32 14.4 32 32v512c0 17.6-14.4 32-32 32zM896 448h128v-124.6l-64 21.4-64-21.4v124.6zM704 896v-124.6l-64 21.4-64-21.4v124.6h128zM384 896h128v-213.4l128 42.6 128-42.6v213.4h128v-384h-512v384zM384 448v-124.6l-64 21.4-64-21.4v124.6h128zM64 448h128v-213.4l128 42.6 128-42.6v213.4h160v-448h-544v448zM1216 0h-544v448h160v-213.4l128 42.6 128-42.6v213.4h128v-448z" />
<glyph unicode="&#xe96a;" glyph-name="boxing-glove" horiz-adv-x="896" d="M504.8 238.4l14.4-28.6c4-8 0.8-17.6-7.2-21.4l-56.4-28.4 56.4-28.2c8-4 11.2-13.6 7.2-21.4l-14.4-28.6c-4-8-13.6-11.2-21.4-7.2l-99.4 49.6-99.4-49.6c-8-4-17.6-0.8-21.4 7.2l-14.4 28.6c-4 8-0.8 17.6 7.2 21.4l56.4 28.2-56.4 28.2c-8 4-11.2 13.6-7.2 21.4l14.4 28.6c4 8 13.6 11.2 21.4 7.2l99.4-49.6 99.4 49.6c7.8 4 17.4 0.8 21.4-7zM772.8 210.6l-68.8-64.4v-146.2c0-35.4-28.6-64-64-64h-512c-35.4 0-64 28.6-64 64v192l-34.2 193c-19.8 119.8-29.8 241.8-29.8 363 0 116.8 94.4 212 210.4 212h349.6c114.6 0 208-95.2 208-212v-87.2c74.4-25.2 128-91.8 128-170.8 0-105.6-43.8-204.8-123.2-279.4zM729 257.4c66.4 62.2 103 144.8 103 232.6 0 65-57.4 118-128 118h-62.4c-52.6 0-96.6-41.6-97.6-94.2-1-49.2 35.2-90.2 82.2-96.8 8-1.2 13.8-8.2 13.8-16.2v-32c0-9.4-8.2-17-17.6-16-80 8.8-142.4 76.8-142.4 159 0 22.8 5 44.4 13.6 64h-179c-61.2 0-119 21.8-164.6 61.6-7 6.2-7.4 16.8-0.8 23.4l22.6 22.6c6 6 15.4 6.2 21.8 0.8 33.8-28.8 76.2-44.6 121-44.6h229.4v-0.8c26.8 20.2 59.8 32.8 96 32.8h64v76c0 83-63.2 148-144 148h-349.6c-80.8 0.4-146.4-66-146.4-147.6 0-299.2 63.4-505 63.6-556h48.4c8.8 0 16-7.2 16-16v-32c0-8.8-7.2-16-16-16h-48.4l0.4-128h512v128h-48c-8.8 0-16 7.2-16 16v32c0 8.8 7.2 16 16 16h67.4l69.6 65.4z" />
<glyph unicode="&#xe96b;" glyph-name="braille" horiz-adv-x="1280" d="M128 448c0-35.346-28.654-64-64-64s-64 28.654-64 64 28.654 64 64 64 64-28.654 64-64zM64 160c-17.674 0-32-14.326-32-32s14.326-32 32-32 32 14.326 32 32-14.326 32-32 32zM64 832c-35.346 0-64-28.654-64-64s28.654-64 64-64 64 28.654 64 64-28.654 64-64 64zM384 480c-17.674 0-32-14.326-32-32s14.326-32 32-32 32 14.326 32 32-14.326 32-32 32zM384 160c-17.674 0-32-14.326-32-32s14.326-32 32-32 32 14.326 32 32-14.326 32-32 32zM384 832c-35.346 0-64-28.654-64-64s28.654-64 64-64 64 28.654 64 64-28.654 64-64 64zM896 480c-17.674 0-32-14.326-32-32s14.326-32 32-32 32 14.326 32 32-14.326 32-32 32zM896 160c-17.674 0-32-14.326-32-32s14.326-32 32-32 32 14.326 32 32-14.326 32-32 32zM896 832c-35.346 0-64-28.654-64-64s28.654-64 64-64 64 28.654 64 64-28.654 64-64 64zM1216 480c-17.674 0-32-14.326-32-32s14.326-32 32-32 32 14.326 32 32-14.326 32-32 32zM1216 160c-17.674 0-32-14.326-32-32s14.326-32 32-32 32 14.326 32 32-14.326 32-32 32zM1216 800c-17.674 0-32-14.326-32-32s14.326-32 32-32 32 14.326 32 32-14.326 32-32 32z" />
<glyph unicode="&#xe96c;" glyph-name="briefcase-medical" d="M688 384h-112v112c0 8.8-7.2 16-16 16h-96c-8.8 0-16-7.2-16-16v-112h-112c-8.8 0-16-7.2-16-16v-96c0-8.8 7.2-16 16-16h112v-112c0-8.8 7.2-16 16-16h96c8.8 0 16 7.2 16 16v112h112c8.8 0 16 7.2 16 16v96c0 8.8-7.2 16-16 16zM928 704h-224v144c0 26.6-21.4 48-48 48h-288c-26.6 0-48-21.4-48-48v-144h-224c-53 0-96-43-96-96v-576c0-53 43-96 96-96h832c53 0 96 43 96 96v576c0 53-43 96-96 96zM384 832h256v-128h-256v128zM960 32c0-17.6-14.4-32-32-32h-832c-17.6 0-32 14.4-32 32v576c0 17.6 14.4 32 32 32h832c17.6 0 32-14.4 32-32v-576z" />
<glyph unicode="&#xe96d;" glyph-name="briefcase" d="M928 768h-224v80c0 26.51-21.49 48-48 48h-288c-26.51 0-48-21.49-48-48v-80h-224c-53.020 0-96-42.98-96-96v-576c0-53.020 42.98-96 96-96h832c53.020 0 96 42.98 96 96v576c0 53.020-42.98 96-96 96zM384 832h256v-64h-256v64zM960 96c0-17.644-14.356-32-32-32h-832c-17.644 0-32 14.356-32 32v288h320v-80c0-26.51 21.49-48 48-48h160c26.51 0 48 21.49 48 48v80h320v-288zM448 384h128v-64h-128v64zM64 448v224c0 17.644 14.356 32 32 32h832c17.644 0 32-14.356 32-32v-224h-896z" />
<glyph unicode="&#xe96e;" glyph-name="browser" d="M928 896h-832c-53 0-96-43-96-96v-704c0-53 43-96 96-96h832c53 0 96 43 96 96v704c0 53-43 96-96 96zM64 800c0 17.6 14.4 32 32 32h96v-128h-128v96zM960 96c0-17.6-14.4-32-32-32h-832c-17.6 0-32 14.4-32 32v544h896v-544zM960 704h-704v128h672c17.6 0 32-14.4 32-32v-96z" />
<glyph unicode="&#xe96f;" glyph-name="bug" horiz-adv-x="1152" d="M1088 416h-128v242.746l70.626 70.626c12.498 12.496 12.498 32.758 0 45.254-12.496 12.496-32.758 12.496-45.254 0l-70.626-70.626h-80.746c0 141.48-114.498 256-256 256-141.48 0-256-114.498-256-256h-84.746l-86.626 86.626c-12.498 12.496-32.758 12.496-45.256 0-12.496-12.496-12.496-32.758 0-45.254l86.628-86.626v-242.746h-128c-17.672 0-32-14.326-32-32s14.328-32 32-32h128v-48c0-73.268 22.512-141.372 60.968-197.778l-115.594-115.594c-12.498-12.496-12.498-32.758 0-45.254 12.498-12.498 32.758-12.496 45.254 0l111.232 111.232c63.842-64.548 152.396-104.606 250.14-104.606h64c97.744 0 186.298 40.058 250.142 104.604l111.232-111.232c12.498-12.498 32.758-12.496 45.254 0 12.498 12.496 12.498 32.758 0 45.254l-115.594 115.594c38.454 56.408 60.966 124.512 60.966 197.78v48h128c17.674 0 32 14.326 32 32s-14.326 32-32 32zM578 896c106.038 0 192-85.962 192-192h-384c0 106.038 85.962 192 192 192zM608 16v472c0 13.254-10.746 24-24 24h-16c-13.254 0-24-10.746-24-24v-472c-158.804 0-288 129.198-288 288v336h640v-336c0-158.802-129.198-288-288-288z" />
<glyph unicode="&#xe970;" glyph-name="bullhorn" horiz-adv-x="1152" d="M1088 576v320c0 35.4-28.6 64-64 64-130-112-348-256-608-256h-320c-53 0-96-43-96-96v-192c0-53 43-96 96-96h33.6c-10.6-117.2 30-214 57.8-303.2 3-10 8.6-19 16-26.4 34.6-34.6 82.2-54.4 130.6-54.4 63.6 0 121.8 34 151 95.4 14 29.4 3.8 64.6-23.8 81.8-55.8 34.8-64 45-53.6 63 13.8 24.2 10.4 54.6-8.4 75.2-10.6 11.6-2.6 54.8 22 68.6 257.8-1.8 473.8-144.8 603-256 35.4 0 64 28.6 64 64v320c35.4 0 64 28.6 64 64s-28.8 64-64.2 64zM427.4 59c-34.8-73.4-127-74.8-178.8-23.2-27.6 89-65.8 178.4-54.6 284.2h147.4c-16.6-38.4-15.2-84.2 10.6-112-39.8-69.4 16-112 75.4-149zM64 416v192c0 17.6 14.4 32 32 32h352v-256h-352c-17.6 0-32 14.4-32 32zM1024 147.2c-73.2 58.2-149.4 106.8-227.4 144.4-94.6 45.8-190 74.8-284.6 86.4v268c94.6 11.8 190 40.6 284.6 86.4 77.8 37.8 154.2 86.2 227.4 144.4v-729.6z" />
<glyph unicode="&#xe971;" glyph-name="bullseye" d="M512 880c237.326 0 432-192.11 432-432 0-237.326-192.11-432-432-432-237.326 0-432 192.11-432 432 0 237.326 192.11 432 432 432zM512 944c-273.934 0-496-222.066-496-496s222.066-496 496-496 496 222.066 496 496-222.066 496-496 496zM512 688c132.638 0 240-107.34 240-240 0-132.638-107.34-240-240-240-132.638 0-240 107.34-240 240 0 132.638 107.34 240 240 240zM512 752c-167.894 0-304-136.106-304-304s136.106-304 304-304 304 136.106 304 304-136.106 304-304 304zM512 560c-61.856 0-112-50.144-112-112s50.144-112 112-112 112 50.144 112 112-50.144 112-112 112z" />
<glyph unicode="&#xe972;" glyph-name="burn" horiz-adv-x="768" d="M384 960c-224.6-202.6-384-441.8-384-601 0-249 158-423 384-423s384 174 384 423c0 159.8-160.4 399.2-384 601zM197.8 189.6c0 26.6 8.4 122.4 186.2 322.4 177.8-200 186.2-295.8 186.2-322.4 0-97-57.8-168.2-144.8-185.4-13.6-1.6-27-4.2-41.4-4.2s-27.8 2.4-41.4 4.2c-87 17-144.8 88.4-144.8 185.4zM621.8 110.2c7.4 24.8 12.4 51 12.4 79.4 0 161.8-225.4 391-250.2 418.8-25.8-29-250.2-257.2-250.2-418.8 0-28.4 5-54.6 12.4-79.4-51.6 62.6-82.2 148-82.2 248.8 0 181.6 245.2 431.6 320 503.8 74.8-72 320-322.2 320-503.8 0-100.8-30.6-186.2-82.2-248.8z" />
<glyph unicode="&#xe973;" glyph-name="calculator" horiz-adv-x="768" d="M672 960h-576c-53.020 0-96-42.98-96-96v-832c0-53.020 42.98-96 96-96h576c53.020 0 96 42.98 96 96v832c0 53.020-42.98 96-96 96zM96 896h576c17.644 0 32-14.356 32-32v-160h-640v160c0 17.644 14.356 32 32 32zM672 0h-576c-17.644 0-32 14.356-32 32v608h640v-608c0-17.644-14.356-32-32-32zM256 552v-80c0-13.254-10.746-24-24-24h-80c-13.254 0-24 10.746-24 24v80c0 13.254 10.746 24 24 24h80c13.254 0 24-10.746 24-24zM448 552v-80c0-13.254-10.746-24-24-24h-80c-13.254 0-24 10.746-24 24v80c0 13.254 10.746 24 24 24h80c13.254 0 24-10.746 24-24zM640 552v-80c0-13.254-10.746-24-24-24h-80c-13.254 0-24 10.746-24 24v80c0 13.254 10.746 24 24 24h80c13.254 0 24-10.746 24-24zM256 360v-80c0-13.254-10.746-24-24-24h-80c-13.254 0-24 10.746-24 24v80c0 13.254 10.746 24 24 24h80c13.254 0 24-10.746 24-24zM448 360v-80c0-13.254-10.746-24-24-24h-80c-13.254 0-24 10.746-24 24v80c0 13.254 10.746 24 24 24h80c13.254 0 24-10.746 24-24zM640 360v-272c0-13.254-10.746-24-24-24h-80c-13.254 0-24 10.746-24 24v272c0 13.254 10.746 24 24 24h80c13.254 0 24-10.746 24-24zM256 168v-80c0-13.254-10.746-24-24-24h-80c-13.254 0-24 10.746-24 24v80c0 13.254 10.746 24 24 24h80c13.254 0 24-10.746 24-24zM448 168v-80c0-13.254-10.746-24-24-24h-80c-13.254 0-24 10.746-24 24v80c0 13.254 10.746 24 24 24h80c13.254 0 24-10.746 24-24z" />
<glyph unicode="&#xe974;" glyph-name="calendar-alt" horiz-adv-x="896" d="M800 832h-96v104c0 13.2-10.8 24-24 24h-16c-13.2 0-24-10.8-24-24v-104h-384v104c0 13.2-10.8 24-24 24h-16c-13.2 0-24-10.8-24-24v-104h-96c-53 0-96-43-96-96v-704c0-53 43-96 96-96h704c53 0 96 43 96 96v704c0 53-43 96-96 96zM96 768h704c17.6 0 32-14.4 32-32v-96h-768v96c0 17.6 14.4 32 32 32zM800 0h-704c-17.6 0-32 14.4-32 32v544h768v-544c0-17.6-14.4-32-32-32zM296 320h-80c-13.2 0-24 10.8-24 24v80c0 13.2 10.8 24 24 24h80c13.2 0 24-10.8 24-24v-80c0-13.2-10.8-24-24-24zM488 320h-80c-13.2 0-24 10.8-24 24v80c0 13.2 10.8 24 24 24h80c13.2 0 24-10.8 24-24v-80c0-13.2-10.8-24-24-24zM680 320h-80c-13.2 0-24 10.8-24 24v80c0 13.2 10.8 24 24 24h80c13.2 0 24-10.8 24-24v-80c0-13.2-10.8-24-24-24zM488 128h-80c-13.2 0-24 10.8-24 24v80c0 13.2 10.8 24 24 24h80c13.2 0 24-10.8 24-24v-80c0-13.2-10.8-24-24-24zM296 128h-80c-13.2 0-24 10.8-24 24v80c0 13.2 10.8 24 24 24h80c13.2 0 24-10.8 24-24v-80c0-13.2-10.8-24-24-24zM680 128h-80c-13.2 0-24 10.8-24 24v80c0 13.2 10.8 24 24 24h80c13.2 0 24-10.8 24-24v-80c0-13.2-10.8-24-24-24z" />
<glyph unicode="&#xe975;" glyph-name="calendar-check" horiz-adv-x="896" d="M800 832h-96v104c0 13.254-10.746 24-24 24h-16c-13.254 0-24-10.746-24-24v-104h-384v104c0 13.254-10.746 24-24 24h-16c-13.254 0-24-10.746-24-24v-104h-96c-53.020 0-96-42.98-96-96v-704c0-53.020 42.98-96 96-96h704c53.020 0 96 42.98 96 96v704c0 53.020-42.98 96-96 96zM96 768h704c17.644 0 32-14.356 32-32v-96h-768v96c0 17.644 14.356 32 32 32zM800 0h-704c-17.644 0-32 14.356-32 32v544h768v-544c0-17.644-14.356-32-32-32zM667.066 389.874l-269.582-267.42c-9.4-9.326-24.576-9.284-33.926 0.092l-134.716 135.104c-9.366 9.394-9.344 24.602 0.048 33.97l17.010 16.96c9.394 9.366 24.602 9.344 33.968-0.048l100.884-101.174 235.564 233.674c9.418 9.342 24.626 9.282 33.97-0.136l16.916-17.054c9.344-9.418 9.282-24.626-0.136-33.968z" />
<glyph unicode="&#xe976;" glyph-name="calendar-edit" horiz-adv-x="896" d="M800 832h-96v104c0 13.2-10.8 24-24 24h-16c-13.2 0-24-10.8-24-24v-104h-384v104c0 13.2-10.8 24-24 24h-16c-13.2 0-24-10.8-24-24v-104h-96c-53 0-96-43-96-96v-704c0-53 43-96 96-96h704c53 0 96 43 96 96v704c0 53-43 96-96 96zM96 768h704c17.6 0 32-14.4 32-32v-96h-768v96c0 17.6 14.4 32 32 32zM800 0h-704c-17.6 0-32 14.4-32 32v544h768v-544c0-17.6-14.4-32-32-32zM511.4 420.6l69.2-69.2c4.2-4.2 4.2-10.8 0-14.8l-262.4-262.4-70.2-10c-13.8-2-25.8 9.8-23.8 23.8l10 70.2 262.4 262.4c4 4 10.8 4 14.8 0zM661.8 417.8l-38.4-38.4c-4.2-4.2-10.8-4.2-14.8 0l-69.2 69.2c-4.2 4.2-4.2 10.8 0 14.8l38.4 38.4c13.6 13.6 35.8 13.6 49.4 0l34.6-34.6c13.6-13.6 13.6-35.8 0-49.4z" />
<glyph unicode="&#xe977;" glyph-name="calendar-exclamation" horiz-adv-x="896" d="M800 832h-96v104c0 13.2-10.8 24-24 24h-16c-13.2 0-24-10.8-24-24v-104h-384v104c0 13.2-10.8 24-24 24h-16c-13.2 0-24-10.8-24-24v-104h-96c-53 0-96-43-96-96v-704c0-53 43-96 96-96h704c53 0 96 43 96 96v704c0 53-43 96-96 96zM96 768h704c17.6 0 32-14.4 32-32v-96h-768v96c0 17.6 14.4 32 32 32zM800 0h-704c-17.6 0-32 14.4-32 32v544h768v-544c0-17.6-14.4-32-32-32zM425.4 512h45.2c13.8 0 24.8-11.6 24-25.4l-13.4-240c-0.8-12.8-11.2-22.6-24-22.6h-18.6c-12.8 0-23.2 10-24 22.6l-13.4 240c-0.6 13.8 10.4 25.4 24.2 25.4zM504 128c0-31-25-56-56-56s-56 25-56 56 25 56 56 56 56-25 56-56z" />
<glyph unicode="&#xe978;" glyph-name="calendar-minus" horiz-adv-x="896" d="M800 832h-96v104c0 13.2-10.8 24-24 24h-16c-13.2 0-24-10.8-24-24v-104h-384v104c0 13.2-10.8 24-24 24h-16c-13.2 0-24-10.8-24-24v-104h-96c-53 0-96-43-96-96v-704c0-53 43-96 96-96h704c53 0 96 43 96 96v704c0 53-43 96-96 96zM96 768h704c17.6 0 32-14.4 32-32v-96h-768v96c0 17.6 14.4 32 32 32zM800 0h-704c-17.6 0-32 14.4-32 32v544h768v-544c0-17.6-14.4-32-32-32zM616 256h-336c-13.2 0-24 10.8-24 24v16c0 13.2 10.8 24 24 24h336c13.2 0 24-10.8 24-24v-16c0-13.2-10.8-24-24-24z" />
<glyph unicode="&#xe979;" glyph-name="calendar-plus" horiz-adv-x="896" d="M640 296v-16c0-13.2-10.8-24-24-24h-136v-136c0-13.2-10.8-24-24-24h-16c-13.2 0-24 10.8-24 24v136h-136c-13.2 0-24 10.8-24 24v16c0 13.2 10.8 24 24 24h136v136c0 13.2 10.8 24 24 24h16c13.2 0 24-10.8 24-24v-136h136c13.2 0 24-10.8 24-24zM896 736v-704c0-53-43-96-96-96h-704c-53 0-96 43-96 96v704c0 53 43 96 96 96h96v104c0 13.2 10.8 24 24 24h16c13.2 0 24-10.8 24-24v-104h384v104c0 13.2 10.8 24 24 24h16c13.2 0 24-10.8 24-24v-104h96c53 0 96-43 96-96zM64 736v-96h768v96c0 17.6-14.4 32-32 32h-704c-17.6 0-32-14.4-32-32zM832 32v544h-768v-544c0-17.6 14.4-32 32-32h704c17.6 0 32 14.4 32 32z" />
<glyph unicode="&#xe97a;" glyph-name="calendar-times" horiz-adv-x="896" d="M800 832h-96v104c0 13.2-10.8 24-24 24h-16c-13.2 0-24-10.8-24-24v-104h-384v104c0 13.2-10.8 24-24 24h-16c-13.2 0-24-10.8-24-24v-104h-96c-53 0-96-43-96-96v-704c0-53 43-96 96-96h704c53 0 96 43 96 96v704c0 53-43 96-96 96zM96 768h704c17.6 0 32-14.4 32-32v-96h-768v96c0 17.6 14.4 32 32 32zM800 0h-704c-17.6 0-32 14.4-32 32v544h768v-544c0-17.6-14.4-32-32-32zM589.4 191.8c9.4-9.4 9.4-24.6 0-34l-11.4-11.4c-9.4-9.4-24.6-9.4-34 0l-96 96.4-96.2-96.2c-9.4-9.4-24.6-9.4-34 0l-11.4 11.4c-9.4 9.4-9.4 24.6 0 34l96.2 96.2-96.2 96.2c-9.4 9.4-9.4 24.6 0 34l11.4 11.4c9.4 9.4 24.6 9.4 34 0l96.2-96.2 96.2 96.2c9.4 9.4 24.6 9.4 34 0l11.4-11.4c9.4-9.4 9.4-24.6 0-34l-96.4-96.4 96.2-96.2z" />
<glyph unicode="&#xe97b;" glyph-name="calendar" horiz-adv-x="896" d="M800 832h-96v104c0 13.254-10.746 24-24 24h-16c-13.254 0-24-10.746-24-24v-104h-384v104c0 13.254-10.746 24-24 24h-16c-13.254 0-24-10.746-24-24v-104h-96c-53.020 0-96-42.98-96-96v-704c0-53.020 42.98-96 96-96h704c53.020 0 96 42.98 96 96v704c0 53.020-42.98 96-96 96zM96 768h704c17.644 0 32-14.356 32-32v-96h-768v96c0 17.644 14.356 32 32 32zM800 0h-704c-17.644 0-32 14.356-32 32v544h768v-544c0-17.644-14.356-32-32-32z" />
<glyph unicode="&#xe97c;" glyph-name="camera-alt" d="M512 144c-132.4 0-240 107.6-240 240s107.6 240 240 240 240-107.6 240-240-107.6-240-240-240zM512 560c-97 0-176-79-176-176s79-176 176-176 176 79 176 176-79 176-176 176zM448 384c0 35.2 28.8 64 64 64 17.6 0 32 14.4 32 32s-14.4 32-32 32c-70.6 0-128-57.4-128-128 0-17.6 14.4-32 32-32s32 14.4 32 32zM648.6 832c6.6 0 12.6-4.2 15-10.4l44.2-117.6h220.2c17.6 0 32-14.4 32-32v-576c0-17.6-14.4-32-32-32h-832c-17.6 0-32 14.4-32 32v576c0 17.6 14.4 32 32 32h220.4l40.2 107.2c4.6 12.4 16.6 20.8 30 20.8h262zM648.6 896h-262c-40 0-75.8-24.8-89.8-62.2l-24.8-65.8h-176c-53 0-96-43-96-96v-576c0-53 43-96 96-96h832c53 0 96 43 96 96v576c0 53-43 96-96 96h-176l-28.6 76c-11.6 31.4-41.4 52-74.8 52z" />
<glyph unicode="&#xe97d;" glyph-name="camera-retro" d="M64 844v40c0 6.6 5.4 12 12 12h232c6.6 0 12-5.4 12-12v-40c0-6.6-5.4-12-12-12h-232c-6.6 0-12 5.4-12 12zM752 384c0 132.4-107.6 240-240 240s-240-107.6-240-240 107.6-240 240-240 240 107.6 240 240zM688 384c0-97-79-176-176-176s-176 79-176 176 79 176 176 176 176-79 176-176zM448 384c0 35.2 28.8 64 64 64 17.6 0 32 14.4 32 32s-14.4 32-32 32c-70.6 0-128-57.4-128-128 0-17.6 14.4-32 32-32s32 14.4 32 32zM1024 800v-704c0-53-43-96-96-96h-832c-53 0-96 43-96 96v576c0 53 43 96 96 96h272l67.2 89.6c18.2 24.2 46.6 38.4 76.8 38.4h416c53 0 96-43 96-96zM448 768h480c11.2 0 22-2 32-5.4v37.4c0 17.6-14.4 32-32 32h-416c-10 0-19.6-4.8-25.6-12.8l-38.4-51.2zM960 672c0 17.6-14.4 32-32 32h-832c-17.6 0-32-14.4-32-32v-576c0-17.6 14.4-32 32-32h832c17.6 0 32 14.4 32 32v576z" />
<glyph unicode="&#xe97e;" glyph-name="camera" d="M648.6 832c6.6 0 12.6-4.2 15-10.4l44.2-117.6h220.2c17.6 0 32-14.4 32-32v-576c0-17.6-14.4-32-32-32h-832c-17.6 0-32 14.4-32 32v576c0 17.6 14.4 32 32 32h220.4l40.2 107.2c4.6 12.4 16.6 20.8 30 20.8h262zM648.6 896h-262c-40 0-75.8-24.8-89.8-62.2l-24.8-65.8h-176c-53 0-96-43-96-96v-576c0-53 43-96 96-96h832c53 0 96 43 96 96v576c0 53-43 96-96 96h-176l-28.6 76c-11.6 31.4-41.4 52-74.8 52zM512 144c-132.4 0-240 107.6-240 240s107.6 240 240 240 240-107.6 240-240-107.6-240-240-240zM512 560c-97 0-176-79-176-176s79-176 176-176 176 79 176 176-79 176-176 176z" />
<glyph unicode="&#xe97f;" glyph-name="car" d="M304 352c0-35.346-60.654-32-96-32s-64 28.654-64 64 28.654 64 64 64 96-60.654 96-96zM816 448c-35.346 0-96-60.654-96-96s60.654-32 96-32 64 28.654 64 64-28.654 64-64 64zM1022.75 624.41l-16-48c-3.276-9.616-12.228-16.41-22.768-16.41h-57.002c39.866-35.182 65.020-86.65 65.020-144v-112c0-30.508-12.214-58.154-32-78.352v-81.648c0-44.182-35.818-80-80-80h-96c-44.182 0-80 35.818-80 80v48h-384v-48c0-44.182-35.818-80-80-80h-96c-44.182 0-80 35.818-80 80v81.646c-19.786 20.2-32 47.844-32 78.352v112c0 57.35 25.154 108.818 65.020 144h-57.002c-10.54 0-19.492 6.794-22.718 16.241l-0.050 0.169-16 48c-5.18 15.544 6.386 31.592 22.768 31.592h63.964c10.54 0 19.492-6.794 22.718-16.241l0.050-0.169 10.334-31.002 61.166 131.072c26.178 56.096 83.090 92.34 144.992 92.34h369.518c61.902 0 118.812-36.246 144.988-92.34l61.168-131.072 10.334 31.002c3.276 9.616 12.228 16.41 22.768 16.41h63.964c16.382 0 27.948-16.048 22.768-31.59zM190.038 605.006c10.19 1.905 21.913 2.994 33.891 2.994 0.025 0 0.050 0 0.075 0h575.996c11.588 0 22.938-1.028 33.962-2.994l-50.21 107.59c-15.706 33.658-49.852 55.404-86.992 55.404h-369.518c-37.14 0-71.288-21.748-86.994-55.404l-50.21-107.59zM256 192c-121.088 0-116.638-0.47-128 1.156v-49.156c0-8.822 7.178-16 16-16h96c8.822 0 16 7.178 16 16v48zM896 193.156c-11.372-1.628-7.118-1.156-128-1.156v-48c0-8.822 7.178-16 16-16h96c8.822 0 16 7.178 16 16v49.156zM800 544h-576c-70.58 0-128-57.42-128-128v-112c0-26.468 21.532-48 48-48h736c26.468 0 48 21.532 48 48v112c0 70.58-57.42 128-128 128zM660 384h-296c-7.014 0-12-4.432-12-16 0-26.51 21.49-48 48-48h224c26.51 0 48 21.49 48 48 0 11.576-4.994 16-12 16z" />
<glyph unicode="&#xe980;" glyph-name="caret-circle-down" d="M512 944c-274 0-496-222-496-496s222-496 496-496 496 222 496 496-222 496-496 496zM944 448c0-237.4-192.2-432-432-432-237.4 0-432 192.2-432 432 0 237.4 192.2 432 432 432 237.4 0 432-192.2 432-432zM704 512l-192-192-192 192h384zM320 576c-56.8 0-85.6-69-45.2-109.2l192-192c25-25 65.6-25 90.6 0l192 192c40.2 40.2 11.8 109.2-45.2 109.2h-384.2z" />
<glyph unicode="&#xe981;" glyph-name="caret-circle-left" d="M1008 448c0 274-222 496-496 496s-496-222-496-496 222-496 496-496 496 222 496 496zM512 16c-237.4 0-432 192.2-432 432 0 237.4 192.2 432 432 432 237.4 0 432-192.2 432-432 0-237.4-192.2-432-432-432zM576 256l-192 192 192 192v-384zM640 640c0 56.8-69 85.6-109.2 45.2l-192-192c-25-25-25-65.6 0-90.6l192-192c40.2-40.2 109.2-11.8 109.2 45.2v384.2z" />
<glyph unicode="&#xe982;" glyph-name="caret-circle-right" d="M16 448c0-274 222-496 496-496s496 222 496 496-222 496-496 496-496-222-496-496zM512 880c237.4 0 432-192.2 432-432 0-237.4-192.2-432-432-432-237.4 0-432 192.2-432 432 0 237.4 192.2 432 432 432zM448 640l192-192-192-192v384zM384 256c0-56.8 69-85.6 109.2-45.2l192 192c25 25 25 65.6 0 90.6l-192 192c-40.2 40.2-109.2 11.8-109.2-45.2v-384.2z" />
<glyph unicode="&#xe983;" glyph-name="caret-circle-up" d="M512-48c274 0 496 222 496 496s-222 496-496 496-496-222-496-496 222-496 496-496zM80 448c0 237.4 192.2 432 432 432 237.4 0 432-192.2 432-432 0-237.4-192.2-432-432-432-237.4 0-432 192.2-432 432zM320 384l192 192 192-192h-384zM704 320c56.8 0 85.6 69 45.2 109.2l-192 192c-25 25-65.6 25-90.6 0l-192-192c-40.2-40.2-11.8-109.2 45.2-109.2h384.2z" />
<glyph unicode="&#xe984;" glyph-name="caret-down" horiz-adv-x="640" d="M575.936 640h-511.86c-56.85 0-85.534-68.976-45.254-109.254l255.924-256c24.992-24.992 65.516-24.994 90.51 0l255.936 256c40.198 40.198 11.708 109.254-45.256 109.254zM320 320l-256 256h512l-256-256z" />
<glyph unicode="&#xe985;" glyph-name="caret-left" horiz-adv-x="384" d="M384 192.064v511.86c0 56.85-68.976 85.534-109.254 45.254l-256-255.924c-24.992-24.992-24.994-65.516 0-90.51l256-255.936c40.198-40.198 109.254-11.708 109.254 45.256zM64 448l256 256v-512l-256 256z" />
<glyph unicode="&#xe986;" glyph-name="caret-right" horiz-adv-x="384" d="M0 703.936v-511.86c0-56.85 68.976-85.534 109.254-45.254l256 255.924c24.992 24.992 24.994 65.516 0 90.51l-256 255.936c-40.198 40.198-109.254 11.708-109.254-45.256zM320 448l-256-256v512l256-256z" />
<glyph unicode="&#xe987;" glyph-name="caret-square-down" horiz-adv-x="896" d="M800 896h-704c-53 0-96-43-96-96v-704c0-53 43-96 96-96h704c53 0 96 43 96 96v704c0 53-43 96-96 96zM832 96c0-17.6-14.4-32-32-32h-704c-17.6 0-32 14.4-32 32v704c0 17.6 14.4 32 32 32h704c17.6 0 32-14.4 32-32v-704zM640 512l-192-192-192 192h384zM256 576c-56.8 0-85.6-69-45.2-109.2l192-192c25-25 65.6-25 90.6 0l192 192c40.2 40.2 11.8 109.2-45.2 109.2h-384.2z" />
<glyph unicode="&#xe988;" glyph-name="caret-square-left" horiz-adv-x="896" d="M896 96v704c0 53-43 96-96 96h-704c-53 0-96-43-96-96v-704c0-53 43-96 96-96h704c53 0 96 43 96 96zM96 64c-17.6 0-32 14.4-32 32v704c0 17.6 14.4 32 32 32h704c17.6 0 32-14.4 32-32v-704c0-17.6-14.4-32-32-32h-704zM512 256l-192 192 192 192v-384zM576 640c0 56.8-69 85.6-109.2 45.2l-192-192c-25-25-25-65.6 0-90.6l192-192c40.2-40.2 109.2-11.8 109.2 45.2v384.2z" />
<glyph unicode="&#xe989;" glyph-name="caret-square-right" horiz-adv-x="896" d="M0 800v-704c0-53 43-96 96-96h704c53 0 96 43 96 96v704c0 53-43 96-96 96h-704c-53 0-96-43-96-96zM800 832c17.6 0 32-14.4 32-32v-704c0-17.6-14.4-32-32-32h-704c-17.6 0-32 14.4-32 32v704c0 17.6 14.4 32 32 32h704zM384 640l192-192-192-192v384zM320 256c0-56.8 69-85.6 109.2-45.2l192 192c25 25 25 65.6 0 90.6l-192 192c-40.2 40.2-109.2 11.8-109.2-45.2v-384.2z" />
<glyph unicode="&#xe98a;" glyph-name="caret-square-up" horiz-adv-x="896" d="M96 0h704c53 0 96 43 96 96v704c0 53-43 96-96 96h-704c-53 0-96-43-96-96v-704c0-53 43-96 96-96zM64 800c0 17.6 14.4 32 32 32h704c17.6 0 32-14.4 32-32v-704c0-17.6-14.4-32-32-32h-704c-17.6 0-32 14.4-32 32v704zM256 384l192 192 192-192h-384zM640 320c56.8 0 85.6 69 45.2 109.2l-192 192c-25 25-65.6 25-90.6 0l-192-192c-40-40.2-11.6-109.2 45.4-109.2h384z" />
<glyph unicode="&#xe98b;" glyph-name="caret-up" horiz-adv-x="640" d="M64.064 256h511.86c56.85 0 85.534 68.976 45.254 109.254l-255.924 256c-24.992 24.992-65.516 24.994-90.51 0l-255.936-256c-40.198-40.198-11.708-109.254 45.256-109.254zM320 576l256-256h-512l256 256z" />
<glyph unicode="&#xe98c;" glyph-name="cart-arrow-down" horiz-adv-x="1152" d="M1103.982 832h-845.422l-16.658 88.846c-4.258 22.702-24.080 39.154-47.178 39.154h-170.724c-13.254 0-24-10.746-24-24v-16c0-13.254 10.746-24 24-24h157.44l139.854-745.892c-20.684-22.736-33.294-52.948-33.294-86.108 0-70.692 57.308-128 128-128s128 57.308 128 128c0 0.042 0 0.092 0 0.141 0 23.519-6.375 45.549-17.491 64.456l0.325-0.597h290.334c-10.791-18.31-17.166-40.34-17.166-63.859 0-0.050 0-0.099 0-0.149v0.008c0-70.692 57.308-128 128-128s128 57.308 128 128c0 35.986-14.87 68.48-38.776 91.736-5.182 20.482-23.706 36.264-46.57 36.264h-592.096l-24 128h662.762c22.736 0 42.354 15.952 46.992 38.21l86.662 416c6.208 29.808-16.546 57.79-46.994 57.79zM480 64c0-35.29-28.71-64-64-64s-64 28.71-64 64 28.71 64 64 64 64-28.71 64-64zM928 0c-35.29 0-64 28.71-64 64s28.71 64 64 64 64-28.71 64-64-28.71-64-64-64zM1004.312 384h-661.752l-72 384h813.752l-80-384zM791.030 535.030l-102.058-102.058c-9.372-9.372-24.568-9.372-33.942 0l-102.058 102.058c-15.12 15.12-4.412 40.97 16.97 40.97h70.058v104c0 13.254 10.746 24 24 24h16c13.254 0 24-10.746 24-24v-104h70.058c21.382 0 32.090-25.852 16.972-40.97z" />
</font>
</defs>
</svg>
